<?xml version="1.0" standalone="no"?>
<!DOCTYPE svg PUBLIC "-//W3C//DTD SVG 1.1//EN" "http://www.w3.org/Graphics/SVG/1.1/DTD/svg11.dtd" >
<svg xmlns="http://www.w3.org/2000/svg">
  <metadata>Created by iconfont</metadata>
  <defs>
  <font id="iconfont" horiz-adv-x="1024">
    <font-face
      font-family="iconfont"
      font-weight="400"
      font-stretch="normal"
      units-per-em="1024"
      ascent="896"
      descent="-128"
    />
      <missing-glyph />
      
      <glyph glyph-name="biaoge" unicode="&#59374;" d="M53.376 725.312c0 41.28 33.408 74.688 74.688 74.688h768c41.216 0 74.624-33.408 74.624-74.688v-682.624c0-41.28-33.408-74.688-74.624-74.688H128a74.688 74.688 0 0 0-74.688 74.688V725.312z m64-501.312v-181.312c0-5.888 4.8-10.688 10.688-10.688h213.312v192h-224z m224 64v192h-224v-192h224z m64-64v-192h213.248v192H405.376z m213.248 64v192H405.376v-192h213.248z m64-64v-192h213.44a10.688 10.688 0 0 1 10.624 10.688V224h-224.064z m224.064 64v192h-224.064v-192h224.064z m0 256V725.312a10.688 10.688 0 0 1-10.624 10.688H128a10.688 10.688 0 0 1-10.688-10.688V544h789.312z"  horiz-adv-x="1024" />
      
      <glyph glyph-name="liebiao" unicode="&#59375;" d="M136 752.256v-256h256v256h-256z m-64 0a64 64 0 0 0 64 64h256a64 64 0 0 0 64-64v-256a64 64 0 0 0-64-64h-256a64 64 0 0 0-64 64v256z m64-480.576v-256h256v256h-256z m-64 0a64 64 0 0 0 64 64h256a64 64 0 0 0 64-64v-256a64 64 0 0 0-64-64h-256a64 64 0 0 0-64 64v256z m880 417.792H545.728v64h406.272v-64z m-406.272-480.64h406.272v64H545.728v-64z m406.272 286.272H545.728v64h406.272v-64z m-406.272-480.64h406.272v64H545.728v-64z"  horiz-adv-x="1024" />
      
      <glyph glyph-name="play-fill" unicode="&#59464;" d="M512 832C264.6 832 64 631.4 64 384s200.6-448 448-448 448 200.6 448 448S759.4 832 512 832z m144.1-454.9L437.7 218.20000000000005c-1.4-1-3-1.5-4.7-1.5-4.4 0-8 3.6-8 8V542.3c0 1.7 0.5 3.3 1.5 4.7 2.6 3.6 7.6 4.4 11.2 1.8L656.1 390c0.7-0.5 1.3-1.1 1.8-1.8 2.6-3.5 1.8-8.5-1.8-11.1z"  horiz-adv-x="1024" />
      
      <glyph glyph-name="xieyi1" unicode="&#59372;" d="M309.376 297.152h289.472v-57.856H309.376v57.856zM714.624 181.376H309.376v-57.856h405.248v57.856zM77.824 876.096V-108.16h868.352V876.16H77.824z m231.552-57.92v-388.288l115.84 115.84 115.712-115.84V818.176h347.392v-868.352H135.68V818.176h173.696z m173.696 0v-248.512l-57.92 57.92-57.856-57.92V818.176h115.776z"  horiz-adv-x="1024" />
      
      <glyph glyph-name="bangzhu1" unicode="&#59373;" d="M337.792 511.36A174.208 174.208 0 1 0 544 340.224v-97.792h-64V401.28H512A110.208 110.208 0 1 1 401.792 511.36v-32h-64v32zM512 129.152a32 32 0 1 1 0 64 32 32 0 0 1 0-64zM0-128V896h1024v-1024H0zM64 832v-896h896V832H64z"  horiz-adv-x="1024" />
      
      <glyph glyph-name="qiye1" unicode="&#59371;" d="M224 448h256V512h-256v-64zM480 320h-256V384h256v-64zM480 192h-256v64h256v-64zM608 320h192V384h-192v-64zM608 192h192v64h-192v-64zM576 768H128v-704H32v-64h960v64H896V576H576V768zM512 64H192V704h320v-640z m320 0H576V512h256v-448z"  horiz-adv-x="1024" />
      
      <glyph glyph-name="zuji" unicode="&#59365;" d="M318.208 777.1392c31.3088-65.664 15.36-138.5984-35.6096-162.944-50.9952-24.32-117.7344 9.1648-149.0688 74.8032-31.3344 65.664-15.3856 138.5984 35.584 162.944 50.9952 24.32 117.76-9.1648 149.0688-74.8032z m-23.1168-11.0336c-28.0064 58.6496-81.792 78.5408-114.944 62.72-33.1264-15.8208-51.5072-70.144-23.5008-128.7936 27.9808-58.6752 81.792-78.5408 114.9184-62.72 33.1264 15.7952 51.5072 70.144 23.5264 128.7936zM239.5648 341.8368c-12.8512 48.3072-11.2384 88.6272 11.2128 124.6208 22.4512 35.9936 126.3104 98.2528 241.408 58.1632 115.072-40.0896 168.3968-108.032 190.848-146.7904 22.4512-38.784 34.8416-77.568 33.6896-155.0848-2.816-188.3392-129.1264-254.7968-224.5376-304.64-95.4368-49.8688-207.7184-63.7184-261.0432-19.4048-39.1168 32.512-30.8736 88.6272 0 124.6208 18.56 21.6576 46.1824 39.424 68.352 53.7088 14.72 9.472 27.0336 17.3824 32.6912 23.8592 40.2688 46.0032 16.8448 85.8368-11.2384 121.856a295.8336 295.8336 0 0 1-10.8032 12.3904c-20.608 22.9632-60.0064 66.8416-70.5792 106.7008z m32.9472 111.0784c-17.408-27.9552-19.968-60.2624-8.192-104.4992 5.0688-19.2 19.6864-41.8304 36.6592-63.232a621.6704 621.6704 0 0 1 27.648-32.3072c5.0432-5.6064 9.7536-10.8544 12.5184-14.3872 14.1312-18.1504 30.4128-41.1136 36.096-67.5584 6.1696-28.8512-0.8448-58.4192-25.8048-86.912-6.016-6.8608-14.8224-13.1584-22.3744-18.2528-4.736-3.2-10.3936-6.8608-16.128-10.5472l-11.008-7.1168c-19.5328-12.8-38.5024-26.4448-51.3536-41.4208-12.1344-14.1568-19.3792-31.8464-20.1216-48.128-0.6912-15.6928 4.4544-29.696 17.0496-40.1664 19.1232-15.872 52.3776-23.7056 96.1024-19.8144 42.88 3.84 91.5712 18.6112 136.704 42.2144 48.1792 25.1648 99.7888 52.48 140.288 95.2832 39.5008 41.8048 69.2224 99.4048 70.528 187.0592 1.1008 73.7024-10.496 107.7504-30.2336 141.8752-19.968 34.4832-68.864 97.7408-177.152 135.424-51.1232 17.8176-99.84 12.9792-138.5728-0.512-40.0384-13.9776-65.6384-35.7376-72.6528-47.0016zM413.824 610.6368c-43.2896 4.8128-73.344 53.9136-67.1488 109.6448 6.2208 55.7312 46.336 96.9984 89.6256 92.16 43.264-4.8128 73.344-53.9136 67.1232-109.6448-6.1952-55.7312-46.336-96.9984-89.6-92.16z m2.816 25.4464c23.6288-2.6368 56.0128 21.504 61.3632 69.5552 5.3504 48.0256-20.9152 78.7456-44.544 81.3568-23.6288 2.6368-55.9872-21.504-61.3376-69.5552-5.3504-48.0512 20.8896-78.7456 44.544-81.3568zM668.2624 642.2016c-25.472-49.92-77.568-74.3936-116.3776-54.6048-38.8096 19.7888-49.6128 76.3136-24.1408 126.2592 25.472 49.9712 77.568 74.4192 116.3776 54.6304 38.8096-19.7888 49.6128-76.3136 24.1408-126.2848z m-22.8096 11.648c21.9648 43.0592 8.2176 81.024-12.9536 91.8272-21.1712 10.8032-59.9808-0.384-81.9456-43.4432-21.9648-43.0592-8.2176-81.0496 12.9536-91.8272 21.1712-10.8032 59.9808 0.384 81.9456 43.4432zM680.3968 503.6544c-35.2512 25.5488-37.1712 83.072-4.2752 128.4864s88.1664 61.4912 123.4432 35.9424c35.2768-25.5488 37.1712-83.072 4.2752-128.512-32.896-45.3888-88.1664-61.4912-123.4432-35.9168z m15.0272 20.736c19.2512-13.9776 59.3408-8.9088 87.68 30.208 28.3648 39.168 20.6848 78.7968 1.4336 92.7488-19.2512 13.952-59.3152 8.9088-87.68-30.208-28.3648-39.168-20.6848-78.8224-1.4336-92.7744zM893.1328 397.4656c-47.5392-29.7472-104.8064-23.9104-127.8976 13.0048-23.1168 36.9152-3.328 90.9568 44.2112 120.704 47.5392 29.7472 104.8064 23.936 127.9232-12.9792 23.0912-36.9152 3.3024-90.9568-44.2368-120.7296z m-13.568 21.7088c40.96 25.6512 48.7168 65.28 36.096 85.4272-12.6208 20.1728-51.6608 30.5152-92.6208 4.864-40.96-25.6256-48.7168-65.28-36.096-85.4272 12.5952-20.1472 51.6352-30.5152 92.6208-4.864z"  horiz-adv-x="1024" />
      
      <glyph glyph-name="xieyi" unicode="&#59366;" d="M0 896m512 0l0 0q512 0 512-512l0 0q0-512-512-512l0 0q-512 0-512 512l0 0q0 512 512 512ZM400 336h160v-32h-160v32zM624 272h-224v-32h224v32zM272 656v-544h480v544h-480z m128-32v-214.624l64 64 64-64V624h192v-480h-416v480h96z m96 0v-137.376l-32 32-32-32V624h64z"  horiz-adv-x="1024" />
      
      <glyph glyph-name="bangzhu" unicode="&#59367;" d="M0 896m512 0l0 0q512 0 512-512l0 0q0-512-512-512l0 0q-512 0-512 512l0 0q0 512 512 512ZM424.896 447.68a87.104 87.104 0 1 0 103.104-85.632v-48.864h-32V392.64h16a55.104 55.104 0 1 1-55.104 55.104v-16h-32v16zM512 256.576a16 16 0 1 1 0 32 16 16 0 0 1 0-32zM256 128V640h512v-512H256zM288 608v-448h448V608H288z"  horiz-adv-x="1024" />
      
      <glyph glyph-name="yiyuan" unicode="&#59368;" d="M229.9904 384.7424h103.936v-103.9104h25.6V384.768h103.8592v25.6h-103.8336v103.8848h-25.6v-103.8848h-103.936v-25.6zM782.0544 346.3168h-151.3984v25.6h151.3984v-25.6zM630.656 196.864h151.3984v25.6h-151.3984v-25.6zM115.2 755.2h460.8v-230.4h307.2v-476.2368h118.016v-25.6H22.784v25.6H115.2V755.2z m25.6-706.6368h409.6V729.6h-409.6v-681.0368z m435.2 0h281.6V499.2h-281.6v-450.6368z"  horiz-adv-x="1024" />
      
      <glyph glyph-name="qiye" unicode="&#59369;" d="M0 896m512 0l0 0q512 0 512-512l0 0q0-512-512-512l0 0q-512 0-512 512l0 0q0 512 512 512ZM352 432h128v32h-128v-32zM480 368h-128v32h128v-32zM480 304h-128v32h128v-32zM544 368h96v32h-96v-32zM544 304h96v32h-96v-32zM528 592h-224v-352H256v-32h480v32h-48v256h-160v96z m-32-352h-160v320h160v-320z m160 0h-128v224h128v-224z"  horiz-adv-x="1024" />
      
      <glyph glyph-name="dingdan1" unicode="&#59370;" d="M691.2 448H332.8v25.6h358.4v-25.6zM332.8 268.8h358.4v25.6H332.8v-25.6zM691.2 89.6H332.8v25.6h358.4v-25.6zM307.2 811.648h137.216C444.9792 858.368 478.1056 896 518.912 896c40.7552 0 73.8816-37.632 74.4448-84.352H716.8V729.6h115.2v-844.8h-640v844.8H307.2V811.648z m260.5312-0.2816C567.296 847.4368 542.464 870.4 518.8864 870.4c-23.5776 0-48.4352-22.9632-48.8704-59.0336l-0.2816-25.3184H332.8V665.6h358.4V786.048h-123.1616l-0.3072 25.3184zM307.2 704H217.6v-793.6h588.8v793.6H716.8V640H307.2V704z"  horiz-adv-x="1024" />
      
      <glyph glyph-name="Vector" unicode="&#58881;" d="M472.615385 674.500923L224.807385 426.535385l-55.768616 55.768615L512 825.265231l342.961231-342.882462-55.689846-55.768615L551.384615 674.500923v-731.766154h-78.76923v731.766154z"  horiz-adv-x="1024" />
      
      <glyph glyph-name="Union" unicode="&#58880;" d="M213.922909 690.548364A93.090909 93.090909 0 1 1 345.553455 822.178909 93.090909 93.090909 0 0 1 213.922909 690.548364z m0-372.363637a93.090909 93.090909 0 1 1 131.630546 131.630546A93.090909 93.090909 0 0 1 213.922909 318.184727z m0-372.363636a93.090909 93.090909 0 1 0 131.630546 131.630545 93.090909 93.090909 0 0 0-131.630546-131.630545z m464.523636 744.727273A93.090909 93.090909 0 1 1 810.077091 822.178909a93.090909 93.090909 0 0 1-131.630546-131.630545z m0-372.363637a93.090909 93.090909 0 1 1 131.630546 131.630546 93.090909 93.090909 0 0 1-131.630546-131.630546z m0-372.363636a93.090909 93.090909 0 1 0 131.630546 131.630545 93.090909 93.090909 0 0 0-131.630546-131.630545z"  horiz-adv-x="1024" />
      
      <glyph glyph-name="DataSearch" unicode="&#59363;" d="M256 639.872H0v64h256v-64zM256 447.872H0v64h256v-64zM256 255.872H0v64h256v-64zM512 63.872H0v64h512v-64zM744.32 254.976a256 256 0 1 0 42.688 47.872l193.6-193.728-45.248-45.248-191.04 191.104zM768 447.872a192 192 0 1 1-384 0 192 192 0 0 1 384 0z"  horiz-adv-x="1024" />
      
      <glyph glyph-name="resizer" unicode="&#59364;" d="M755.9168 788.8896L102.4 135.3728l72.3968-72.3968 653.5168 653.5168-72.3968 72.3968zM839.68 441.2416L450.2528 51.5072l72.3968-72.3968L912.1792 368.64l-72.3968 72.4992z"  horiz-adv-x="1024" />
      
      <glyph glyph-name="a-Property1ShippingLocal1" unicode="&#59362;" d="M0 665.6h742.4v-51.2h141.7216L998.4 442.9312V51.2h-102.4a102.4 102.4 0 1 0-204.8 0H256a102.4 102.4 0 1 0-204.8 0H0v614.4zM742.4 332.8h204.8V427.4688L856.6784 563.2H742.4V332.8z m0-51.2v-141.7216a102.4 102.4 0 0 0 139.8784-37.4784H947.2V281.6h-204.8z m51.2-281.6a51.2 51.2 0 1 1 0 102.4 51.2 51.2 0 0 1 0-102.4z m-102.4 102.4v512H51.2v-512h13.7216a102.4 102.4 0 0 0 177.3568 0H691.2zM153.6 0a51.2 51.2 0 1 1 0 102.4 51.2 51.2 0 0 1 0-102.4z"  horiz-adv-x="1024" />
      
      <glyph glyph-name="pay" unicode="&#59361;" d="M768 332.8a51.2 51.2 0 1 0-102.4 0 51.2 51.2 0 0 0 102.4 0zM102.4 793.6v-153.6H51.2v-665.6h921.6V640h-256V793.6H102.4z m563.2-51.2v-102.4H153.6V742.4h512zM102.4 588.8h819.2v-102.4h-409.6v-307.2h409.6v-153.6H102.4V588.8z m460.8-358.4V435.2h358.4v-204.8h-358.4z"  horiz-adv-x="1024" />
      
      <glyph glyph-name="car" unicode="&#59360;" d="M102.4 486.4v-563.2h819.2V486.4h102.4V793.6H0v-307.2h102.4z m870.4 256v-204.8H51.2V742.4h921.6z m-332.8-256H870.4v-512H153.6V486.4h230.4v-300.3392l128 73.8816 128-73.8816V486.4z m-51.2 0v-211.6608L512 318.976l-76.8-44.288V486.4h153.6z"  horiz-adv-x="1024" />
      
      <glyph glyph-name="jingshi" unicode="&#59359;" d="M505.435897 541.538462h13.128206v91.897435h-13.128206v-91.897435zM505.435897 68.923077h13.128206V436.512821h-13.128206v-367.589744zM1024 384c0-282.781538-229.218462-512-512-512S0 101.218462 0 384 229.218462 896 512 896s512-229.218462 512-512z m-13.128205 0C1010.871795 659.521641 787.521641 882.871795 512 882.871795S13.128205 659.521641 13.128205 384s223.350154-498.871795 498.871795-498.871795 498.871795 223.350154 498.871795 498.871795z"  horiz-adv-x="1024" />
      
      <glyph glyph-name="Logout" unicode="&#58908;" d="M537.6-26.0096v51.2h-307.2a76.8 76.8 0 0 0-76.8 76.8v563.2a76.8 76.8 0 0 0 76.8 76.8h307.2v51.2h-307.2a128 128 0 0 1-128-128v-563.2a128 128 0 0 1 128-128h307.2zM665.6 226.5088l44.2368-47.7184 160.5632 179.2-160.5632 179.2L665.6 489.472l88.4224-97.9968 4.608-7.8848H384v-51.2h376.832l-6.8096-7.936L665.6 226.5088z"  horiz-adv-x="1024" />
      
      <glyph glyph-name="a-checkboxcontainerselected" unicode="&#59358;" d="M1024 704a192 192 0 0 1-192 192H192a192 192 0 0 1-192-192v-640a192 192 0 0 1 192-192h640a192 192 0 0 1 192 192V704z m-256-64l90.496-90.496-429.248-429.248L192 357.504 282.496 448l146.752-146.752L768 640z"  horiz-adv-x="1024" />
      
      <glyph glyph-name="a-checkboxenabled1" unicode="&#58899;" d="M832 832a128 128 0 0 0 128-128v-640a128 128 0 0 0-128-128H192a128 128 0 0 0-128 128V704a128 128 0 0 0 128 128h640zM192 896a192 192 0 0 1-192-192v-640a192 192 0 0 1 192-192h640a192 192 0 0 1 192 192V704a192 192 0 0 1-192 192H192z"  horiz-adv-x="1024" />
      
      <glyph glyph-name="a-checkboxenabled" unicode="&#59356;" d="M832 832a128 128 0 0 0 128-128v-640a128 128 0 0 0-128-128H192a128 128 0 0 0-128 128V704a128 128 0 0 0 128 128h640zM192 896a192 192 0 0 1-192-192v-640a192 192 0 0 1 192-192h640a192 192 0 0 1 192 192V704a192 192 0 0 1-192 192H192z"  horiz-adv-x="1024" />
      
      <glyph glyph-name="a-checkboxmixed" unicode="&#59357;" d="M1024 704a192 192 0 0 1-192 192H192a192 192 0 0 1-192-192v-640a192 192 0 0 1 192-192h640a192 192 0 0 1 192 192V704z m-320-64a64 64 0 0 0 64-64v-384a64 64 0 0 0-64-64H320a64 64 0 0 0-64 64V576a64 64 0 0 0 64 64h384z"  horiz-adv-x="1024" />
      
      <glyph glyph-name="checkbox-1" unicode="&#58898;" d="M0 896m192 0l640 0q192 0 192-192l0-640q0-192-192-192l-640 0q-192 0-192 192l0 640q0 192 192 192ZM429.248 301.248L768 640l90.496-90.496-429.248-429.248L192 357.504 282.496 448l146.752-146.752z"  horiz-adv-x="1024" />
      
      <glyph glyph-name="zeiss-xiaoxi" unicode="&#59355;" d="M332.8 353.28V465.92h-51.2v-112.64h51.2zM537.6 465.92v-112.64h-51.2V465.92h51.2zM742.4 353.28V465.92h-51.2v-112.64h51.2zM947.2 742.4h-870.4v-665.6h184.32v-118.272L497.5616 76.8H947.2V742.4z m-819.2-614.4V691.2h768v-563.2H485.4784L312.32 41.4208v86.528H128z"  horiz-adv-x="1024" />
      
      <glyph glyph-name="gouwu" unicode="&#59354;" d="M518.4 102.4a179.2 179.2 0 0 1 179.2 179.2h-51.2a128 128 0 0 0-256 0h-51.2a179.2 179.2 0 0 1 179.2-179.2zM339.2 691.2a179.2 179.2 0 1 0 358.4 0v-51.2h201.472l80.128-716.8h-921.6L137.728 640h201.472V691.2z m307.2 0a128 128 0 0 1-256 0v-51.2h256V691.2z m-462.848-102.4L114.8416-25.6h807.1168L853.248 588.8H183.552z"  horiz-adv-x="1024" />
      
      <glyph glyph-name="a-16Delete" unicode="&#59353;" d="M320 832H128v-64h768V832h-192V896H320v-64zM384 448h64v-384H384V448zM576 64h64V448H576v-384zM192 0V704h640v-704a128 128 0 0 0-128-128H320a128 128 0 0 0-128 128zM256 640v-640a64 64 0 0 1 64-64h384a64 64 0 0 1 64 64V640H256z"  horiz-adv-x="1024" />
      
      <glyph glyph-name="False" unicode="&#59352;" d="M588.8 896h460.8v-460.8h-460.8zM25.6 332.8h460.8v-460.8h-460.8z"  horiz-adv-x="1075" />
      
      <glyph glyph-name="dingdan" unicode="&#59350;" d="M327.111111 469.333333h369.777778v14.222223H327.111111v-14.222223zM696.888889 298.666667v14.222222H327.111111v-14.222222h369.777778zM696.888889 128v14.222222H327.111111v-14.222222h369.777778zM284.444444 809.045333h129.379556a18.062222 18.062222 0 0 1 18.119111 16.426667C437.632 865.934222 471.751111 896 512 896c40.248889 0 74.382222-30.065778 80.056889-70.528a18.062222 18.062222 0 0 1 18.119111-16.426667H725.333333V768h113.777778v-896H170.666667V768h113.777777V809.045333z m129.294223-14.222222H298.666667V725.333333h412.444444V794.823111h-100.849778a32.284444 32.284444 0 0 0-32.327111 28.913778C573.127111 857.216 544.924444 881.777778 512 881.777778s-61.127111-24.561778-65.934222-58.040889a32.284444 32.284444 0 0 0-32.327111-28.913778zM184.888889 753.777778v-867.555556h640V753.777778h-99.555556v-42.666667H284.444444v42.666667h-99.555555z"  horiz-adv-x="1024" />
      
      <glyph glyph-name="LocationOn" unicode="&#59351;" d="M429.824 439.921778c25.841778-24.149333 56.519111-36.224 92.060444-36.224 35.527111 0 65.806222 12.472889 90.837334 37.432889 25.031111 24.96 37.546667 55.139556 37.546666 90.567111 0 35.413333-12.515556 65.607111-37.546666 90.567111-25.031111 24.945778-55.310222 37.432889-90.837334 37.432889-35.527111 0-65.820444-12.487111-90.851555-37.432889-25.031111-24.96-37.546667-55.153778-37.546667-90.567111s12.117333-66.019556 36.337778-91.776z m10.040889 10.069333c-21.518222 23.04-32.156444 50.062222-32.156445 81.706667s11.022222 58.211556 33.365334 80.497778c22.357333 22.272 49.024 33.28 80.810666 33.28 31.786667 0 58.453333-11.008 80.796445-33.28 22.357333-22.286222 33.379556-48.853333 33.379555-80.497778 0-31.658667-11.022222-58.211556-33.379555-80.497778-22.343111-22.286222-49.009778-33.28-80.796445-33.28s-58.88 10.609778-82.019555 32.085333zM550.186667-87.139556c23.850667 28.842667 52.892444 67.697778 87.096889 116.579556a3585.763556 3585.763556 0 0 1 103.793777 157.44c35.000889 56.092444 64.839111 116.195556 89.486223 180.295111 24.661333 64.099556 36.992 120.988444 36.992 170.666667 0 99.356444-34.602667 183.893333-103.808 253.582222C694.556444 861.155556 610.631111 896 512 896c-98.631111 0-182.940444-35.256889-252.942222-105.770667C190.648889 721.322667 156.444444 637.198222 156.444444 537.841778c0-49.678222 12.728889-107.377778 38.186667-173.084445 25.457778-65.692444 53.688889-124.586667 84.707556-176.668444 31.018667-52.081778 67.214222-105.756444 108.572444-161.052445 41.372444-55.281778 70.001778-92.145778 85.902222-110.563555A10771.100444 10771.100444 0 0 0 512-128l38.186667 40.860444zM512 881.777778c94.862222 0 175.146667-33.351111 241.664-100.366222C820.181333 714.410667 853.333333 633.500444 853.333333 537.841778c0-47.402667-11.790222-102.513778-36.039111-165.560889-24.348444-63.288889-53.774222-122.567111-88.277333-177.863111a3569.92 3569.92 0 0 0-103.395556-156.814222c-33.962667-48.540444-62.663111-86.940444-86.129777-115.342223l-27.022223-28.913777a11435.434667 11435.434667 0 0 1-27.875555 32.426666c-15.544889 17.976889-43.889778 54.456889-85.290667 109.795556-41.102222 54.940444-77.013333 108.202667-107.747555 159.800889-30.549333 51.299556-58.453333 109.454222-83.669334 174.535111C182.826667 434.631111 170.666667 490.496 170.666667 537.841778c0 95.701333 32.782222 176.199111 98.474666 242.375111C336.497778 848.056889 417.194667 881.777778 512 881.777778z"  horiz-adv-x="1024" />
      
      <glyph glyph-name="a-72ShoppingBasket" unicode="&#59349;" d="M432.398222 834.901333l-199.111111-270.222222-11.448889 8.433778 199.111111 270.222222 11.448889-8.433778zM0 526.222222l128-568.888889h768l128 568.888889H0z m17.777778-14.222222h988.444444L884.622222-28.444444H139.377778L17.777778 512zM833.393778 564.679111l-199.111111 270.222222 11.463111 8.433778 199.111111-270.222222-11.463111-8.433778z"  horiz-adv-x="1024" />
      
      <glyph glyph-name="a-72Files" unicode="&#59348;" d="M554.666667 896H128v-1024h768V554.666667h-14.222222v-668.444445H142.222222V881.777778h412.444445V896zM284.444444 341.333333h440.888889v14.222223H284.444444v-14.222223z m440.888889-227.555555H284.444444v14.222222h440.888889v-14.222222zM583.111111 583.111111V896l312.888889-312.888889H583.111111z m14.222222 14.222222h264.334223L597.333333 861.667556V597.333333z"  horiz-adv-x="1024" />
      
      <glyph glyph-name="a-20Benefits" unicode="&#59336;" d="M512 896c129.792 0 252.0576-48.5376 345.8048-134.4512l-34.56-37.7344a460.8 460.8 0 1 1 132.4032-214.7328l49.2544 13.824C1017.5488 478.1568 1024 431.5136 1024 384c0-282.7776-229.2224-512-512-512S0 101.2224 0 384 229.2224 896 512 896zM538.3168 245.6064l452.096 427.008-35.1744 37.1712-415.3344-392.2944-163.1232 168.0896-36.7616-35.6864 198.2976-204.288z"  horiz-adv-x="1024" />
      
      <glyph glyph-name="a-20Dashboard" unicode="&#59337;" d="M0 332.8V896h460.8v-563.2H0zM51.2 844.8v-460.8h358.4V844.8H51.2z m512-972.8V435.2h460.8v-563.2h-460.8z m51.2 512v-460.8h358.4v460.8h-358.4zM0 230.4v-358.4h460.8v358.4H0z m409.6-51.2v-256H51.2v256h358.4z m153.6 358.4V896h460.8v-358.4h-460.8z m51.2 307.2v-256h358.4V844.8h-358.4z"  horiz-adv-x="1024" />
      
      <glyph glyph-name="a-20Download" unicode="&#59338;" d="M657.1008 332.8L537.6 216.9344V640h-51.2v-423.1168L366.8992 332.8l-34.0992-33.1776L512 128l179.2 171.6224-34.0992 33.1776zM870.4 179.2v-76.8a76.8 76.8 0 0 0-76.8-76.8h-563.2A76.8 76.8 0 0 0 153.6 102.4V179.2H102.4v-76.8A128 128 0 0 1 230.4-25.6h563.2a128 128 0 0 1 128 128V179.2h-51.2z"  horiz-adv-x="1024" />
      
      <glyph glyph-name="a-20ChevronBack" unicode="&#59339;" d="M649.216 108.3904L318.4128 384l330.752 275.6608 32.768-39.3216L398.4384 384l283.648-236.3392-32.8192-39.3216z"  horiz-adv-x="1024" />
      
      <glyph glyph-name="a-20Cached" unicode="&#59340;" d="M356.096 709.632l-36.4032 35.84A420.096 420.096 0 0 0 515.584 793.6c229.888 0 416.1536-183.3984 416.1536-409.6 0-41.0112-6.144-80.64-17.5104-118.016l72.192 85.248 37.5808-30.8224-141.2096-166.8096-141.2096 166.8096 37.632 30.8224 80.128-94.6176A355.6352 355.6352 0 0 1 882.7904 384c0 199.5776-164.4032 361.4208-367.2064 361.4208a370.5344 370.5344 0 0 1-159.488-35.7888zM118.9888 508.5184L32.4096 433.3056 0 469.504l165.376 143.6672 113.7664-186.0096-41.984-24.832L171.264 509.952A355.5328 355.5328 0 0 1 148.3776 384c0-199.6288 164.352-361.4208 367.2064-361.4208a370.688 370.688 0 0 1 159.488 35.7888l36.4032-35.84c-58.368-30.72-125.0816-48.128-195.8912-48.128-229.888 0-416.2048 183.3984-416.2048 409.6 0 43.4176 6.8608 85.248 19.6096 124.5184z"  horiz-adv-x="1024" />
      
      <glyph glyph-name="a-20CalendarMonth" unicode="&#59341;" d="M204.8 657.0496V793.6h51.2v-136.5504H204.8zM716.8 742.4H307.2v-51.2h409.6V742.4zM870.4 25.6H153.6V742.4H102.4v-768h819.2V742.4h-51.2v-716.8zM768 793.6v-136.5504h51.2V793.6h-51.2z"  horiz-adv-x="1024" />
      
      <glyph glyph-name="a-20Checkmark" unicode="&#59342;" d="M990.464 621.4144L380.3136 41.472 33.5872 371.2l35.328 37.12 311.4496-296.1408L955.136 658.4832l35.328-37.0688z"  horiz-adv-x="1024" />
      
      <glyph glyph-name="a-20ChevronExpand" unicode="&#59343;" d="M786.0224 468.2752L512 194.1504 237.824 468.2752l36.2496 36.2496 237.8752-237.9264 237.8752 237.9264 36.1984-36.2496z"  horiz-adv-x="1024" />
      
      <glyph glyph-name="a-20AccountCircle" unicode="&#59344;" d="M656.7936 341.6064a204.8 204.8 0 1 0-289.5872 289.5872 204.8 204.8 0 0 0 289.5872-289.5872z m-36.1984 36.1984A153.6 153.6 0 1 1 403.456 594.944a153.6 153.6 0 0 1 217.1904-217.1904zM512-128C229.2224-128 0 101.2224 0 384S229.2224 896 512 896s512-229.2224 512-512-229.2224-512-512-512z m0 51.2a458.8032 458.8032 0 0 1 280.4224 95.1296 399.2576 399.2576 0 0 1-67.6864 63.488C675.7376 117.9648 604.16 153.6 512 153.6c-92.16 0-163.7376-35.6352-212.736-71.7824a399.36 399.36 0 0 1-67.6864-63.488A458.752 458.752 0 0 1 512-76.8z m243.0976 199.7824a450.304 450.304 0 0 0 76.1344-71.2704 460.8 460.8 0 1 1-638.464 0 450.048 450.048 0 0 0 76.0832 71.2704C323.9424 163.6352 406.016 204.8 512 204.8c106.0864 0 188.1088-41.1648 243.0976-81.8176z"  horiz-adv-x="1024" />
      
      <glyph glyph-name="a-20ArrowRight" unicode="&#59345;" d="M859.904 409.4976l-161.2288 161.1776 36.2496 36.2496 222.8736-222.976-222.8736-222.9248-36.1984 36.3008 160.9728 160.9728H51.2v51.2h808.704z"  horiz-adv-x="1024" />
      
      <glyph glyph-name="a-20AddCircle" unicode="&#59346;" d="M486.4 588.8v-179.2H307.2v-51.2h179.2V179.2h51.2v179.2H716.8v51.2h-179.2V588.8h-51.2zM1024 384c0-282.7776-229.2224-512-512-512S0 101.2224 0 384 229.2224 896 512 896s512-229.2224 512-512z m-186.1632-325.8368A460.8 460.8 0 1 1 186.112 709.8368a460.8 460.8 0 0 1 651.7248-651.6736z"  horiz-adv-x="1024" />
      
      <glyph glyph-name="a-20ArrowLeft" unicode="&#59347;" d="M207.7696 358.5024l161.1776-161.2288-36.1984-36.1984L109.824 384l222.9248 222.976 36.1984-36.2496-160.9728-160.9728h706.048v-51.2H207.7696z"  horiz-adv-x="1024" />
      
      <glyph glyph-name="a-20OpenInNew" unicode="&#59318;" d="M230.4 793.6A128 128 0 0 1 102.4 665.6v-563.2A128 128 0 0 1 230.4-25.6h563.2a128 128 0 0 1 128 128v211.7632h-51.2V102.4a76.8 76.8 0 0 0-76.8-76.8h-563.2A76.8 76.8 0 0 0 153.6 102.4v563.2A76.8 76.8 0 0 0 230.4 742.4h211.7632V793.6H230.4zM408.4224 230.4L358.4 280.4224l441.7536 442.7776h-230.5536V793.6H921.6v-352h-70.4V672.1536L408.4224 230.4z"  horiz-adv-x="1024" />
      
      <glyph glyph-name="a-20Home" unicode="&#59319;" d="M409.6 179.2h204.8v-307.2h204.8v460.8h204.8L512 896 0 332.8h204.8v-460.8h204.8v307.2z m-51.2-256H256v460.8H115.712L512 819.8656 908.288 384H768v-460.8h-102.4v307.2H358.4v-307.2z"  horiz-adv-x="1024" />
      
      <glyph glyph-name="a-20Mail" unicode="&#59320;" d="M0 640a102.4 102.4 0 0 0 102.4 102.4h819.2a102.4 102.4 0 0 0 102.4-102.4v-512a102.4 102.4 0 0 0-102.4-102.4H102.4a102.4 102.4 0 0 0-102.4 102.4V640z m102.4 51.2a46.9504 46.9504 0 0 1-4.7104-0.2048L512 414.72l414.3104 276.2752A47.616 47.616 0 0 1 921.6 691.2H102.4z m-47.872-32.9728A51.0976 51.0976 0 0 1 51.2 640v-512a51.2 51.2 0 0 1 51.2-51.2h819.2a51.2 51.2 0 0 1 51.2 51.2V640a51.0976 51.0976 0 0 1-3.328 18.2272L512 353.2288 54.528 658.2272z"  horiz-adv-x="1024" />
      
      <glyph glyph-name="a-20Left" unicode="&#59321;" d="M409.6 691.2h51.2v-460.8h256v-51.2H409.6V691.2zM512-128c282.7776 0 512 229.2224 512 512S794.7776 896 512 896 0 666.7776 0 384s229.2224-512 512-512z m0 51.2a460.8 460.8 0 1 0 0 921.6 460.8 460.8 0 0 0 0-921.6z"  horiz-adv-x="1024" />
      
      <glyph glyph-name="a-20CopyContent" unicode="&#59322;" d="M256 844.8a51.2 51.2 0 0 0 51.2 51.2h512a51.2 51.2 0 0 0 51.2-51.2v-716.8a51.2 51.2 0 0 0-51.2-51.2H307.2a51.2 51.2 0 0 0-51.2 51.2V844.8z m51.2 0v-716.8h512V844.8H307.2zM102.4 665.6v-665.6A76.8 76.8 0 0 1 179.2-76.8h512v51.2h-512a25.6 25.6 0 0 0-25.6 25.6v665.6H102.4z"  horiz-adv-x="1024" />
      
      <glyph glyph-name="a-20Hide" unicode="&#59323;" d="M168.6016 384l325.3248-325.376 36.1984 36.1984L240.9984 384l289.1264 289.1264-36.1984 36.2496L168.6016 384zM475.8016 384l325.3248-325.376 36.1984 36.1984L548.1984 384l289.1264 289.1264-36.1984 36.2496L475.8016 384z"  horiz-adv-x="1024" />
      
      <glyph glyph-name="a-20ContactMail" unicode="&#59324;" d="M320.9216 267.8784a128 128 0 1 0-181.0432 181.0432 128 128 0 0 0 181.0432-181.0432z m-36.1984 36.1984a76.8 76.8 0 1 1-108.6464 108.6464 76.8 76.8 0 0 1 108.6464-108.6464zM921.6 640v-307.2H460.8V640h460.8z m-230.4-171.0592L831.0272 588.8h-279.7056L691.2 468.9408z m0-67.4304l-179.2 153.6V384h358.4V555.1104l-179.2-153.6zM30.0032 55.6032A102.4 102.4 0 0 1 102.4 25.6h819.2a102.4 102.4 0 0 1 102.4 102.4V691.2a102.4 102.4 0 0 1-102.4 102.4H102.4a102.4 102.4 0 0 1-102.4-102.4v-563.2a102.4 102.4 0 0 1 30.0032-72.3968zM921.6 742.4a51.2 51.2 0 0 0 51.2-51.2v-563.2a51.2 51.2 0 0 0-51.2-51.2H425.7792c-52.224 63.3344-123.8016 102.4-202.752 102.4-63.1296 0-121.6-24.9856-169.216-67.4304A51.1488 51.1488 0 0 0 51.2 128V691.2a51.2 51.2 0 0 0 51.2 51.2h819.2zM140.9536 76.8h213.504c-38.7072 33.0752-84.3264 51.2-131.4304 51.2-39.7312 0-77.824-12.6464-111.8208-36.1472l0.2048-0.7168 29.5424-14.336z"  horiz-adv-x="1024" />
      
      <glyph glyph-name="a-20MoreHorizontal" unicode="&#59325;" d="M358.4 384a51.2 51.2 0 1 0-102.4 0 51.2 51.2 0 0 0 102.4 0z m204.8 0a51.2 51.2 0 1 0-102.4 0 51.2 51.2 0 0 0 102.4 0z m153.6-51.2a51.2 51.2 0 1 1 0 102.4 51.2 51.2 0 0 1 0-102.4z"  horiz-adv-x="1024" />
      
      <glyph glyph-name="a-20ContactPhone" unicode="&#59326;" d="M310.3232 494.2848a17.9712 17.9712 0 0 0 4.608 23.5008l92.9792 72.704a51.712 51.712 0 0 1 9.3184 70.144L300.1344 823.296a51.7632 51.7632 0 0 1-59.7504 18.3808 265.2672 265.2672 0 0 1-96.6144-61.184C82.3296 719.2064 51.2 647.68 51.2 567.9104c0-124.7232 76.6976-264.4992 227.9936-415.4368C432.9472-1.024 566.8864-76.8 688.2816-76.8c69.3248 0 134.5536 24.7296 197.12 73.8304a260.6592 260.6592 0 0 1 84.2752 116.736 51.6608 51.6608 0 0 1-18.432 59.7504l-163.0208 116.736a51.8656 51.8656 0 0 1-70.4512-9.5744l-72.5504-92.3648a18.176 18.176 0 0 0-23.6032-4.608 934.7584 934.7584 0 0 0-173.4656 137.6256 933.888 933.888 0 0 0-137.8304 172.9536z m448.2048-245.76v0.1024l162.816-116.736a0.4096 0.4096 0 0 0 0.1536-0.256 0.512 0.512 0 0 0 0-0.256l48.1792-17.5616-48.128 17.7152a209.7152 209.7152 0 0 0-67.8912-94.2592C798.6176-5.9392 744.2432-25.6 688.2304-25.6c-100.3008 0-221.5936 63.2832-372.8384 214.272C167.2704 336.4864 102.4 463.7696 102.4 567.9104c0 64.9216 24.7808 123.648 77.5168 176.3328 22.0672 21.9136 48.64 38.7584 77.8752 49.3568h0.1536a0.5632 0.5632 0 0 0 0.6656-0.256l116.992-162.6112 0.1024-0.1024a0.512 0.512 0 0 0 0-0.2048l-0.1024-0.2048-92.0064-71.936a69.1712 69.1712 0 0 1-17.3056-90.112l0.256-0.4096 0.256-0.4096a985.088 985.088 0 0 1 145.2032-182.272 985.6512 985.6512 0 0 1 182.7328-144.9472l0.4096-0.256 0.4096-0.256a69.376 69.376 0 0 1 90.0608 17.2544l72.0896 91.648 0.1024 0.1024a0.6656 0.6656 0 0 0 0.256 0.1024h0.256l0.2048-0.1536z"  horiz-adv-x="1024" />
      
      <glyph glyph-name="a-20Minus" unicode="&#59327;" d="M921.6 358.4H102.4v51.2h819.2v-51.2z"  horiz-adv-x="1024" />
      
      <glyph glyph-name="a-20Map" unicode="&#59328;" d="M51.2-99.2256V759.6544L422.912 847.5136l252.2112-117.0944L972.8 799.5392v-788.992l-307.3024-90.7264-250.2144 116.1728L51.2-99.2256z m614.4 75.4688V678.4L417.4848 793.6 409.6 791.7568v-703.2832l7.8848 2.9696L665.6-23.7568z m51.2 12.1344l204.8 60.416V735.1296l-204.8-47.616v-699.0848zM102.4 719.104V-25.6l275.712 102.4H358.4V779.6224L102.4 719.104z"  horiz-adv-x="1024" />
      
      <glyph glyph-name="a-20Bell" unicode="&#59329;" d="M562.728458 841.078071a51.171088 51.171088 0 1 1-102.03515-0.409369c-164.208022-26.864821-290.140071-181.401508-290.140071-368.022467 0-158.323347-34.284629-316.749037-54.241353-395.399-8.187374-32.237786-13.969707-51.171088-13.969707-51.171088h255.855441v-25.585544a127.927721 127.927721 0 0 1 255.855442 0V26.076147h307.02653s-5.782333 18.933303-13.969707 51.171088c-19.956724 78.701134-54.241354 237.075652-54.241354 395.399 0 202.739852-125.880877 344.125569-290.140071 368.431836z m-376.107499-685.692584c17.39817 85.55806 35.103367 200.897693 35.103367 317.260748C221.724326 654.201256 355.639064 793.642472 511.710883 793.642472c157.606952 0 289.986558-123.322323 289.986558-320.945066 0-116.414226 17.705197-231.80503 35.103367-317.260748 5.321793-26.199597 11.155297-52.245681 17.551683-78.189423H169.018105c5.372964 21.850055 11.462324 48.254336 17.602854 78.138252z"  horiz-adv-x="1024" />
      
      <glyph glyph-name="a-20Edit" unicode="&#59330;" d="M759.808 793.6h-68.9664l-121.1904-121.1904 179.5584-179.5584L870.4 614.0416V683.008L759.808 793.6z m-117.76-121.1904L712.0384 742.4h26.624L819.2 661.8112v-26.5728L749.2096 565.248 642.048 672.4096z m47.8208-238.8992L510.3104 613.0688 102.4 205.1584V25.6h179.5584l407.9104 407.9104zM153.6 76.8v107.1616L510.3104 540.672l107.1616-107.1616L260.7616 76.8H153.6zM102.4-76.8h819.2v51.2H102.4v-51.2z"  horiz-adv-x="1024" />
      
      <glyph glyph-name="a-20ChevronNext" unicode="&#59331;" d="M374.784 659.712L705.6896 384l-330.752-275.6608-32.8192 39.3216L625.664 384 342.016 620.3904l32.768 39.3216z"  horiz-adv-x="1024" />
      
      <glyph glyph-name="a-20GoToLast" unicode="&#59332;" d="M236.5952 42.1888l38.912-33.28L597.0432 384 275.456 758.9888l-38.912-33.28L529.5104 384l-292.864-341.76zM716.8512 742.4v-716.8h51.2V742.4h-51.2z"  horiz-adv-x="1024" />
      
      <glyph glyph-name="a-20Filter" unicode="&#59333;" d="M116.736 685.312C82.1248 729.856 114.3296 793.6 169.984 793.6h684.2368c55.6544 0 87.8592-63.744 53.248-108.288l-0.0512-0.1024c-43.3664-55.296-119.04-133.1712-182.9888-196.5056-35.84-35.4304-71.9872-70.4-108.5952-104.96l-1.3312-1.2288v-357.6832l-204.8-89.6v447.2832l-1.3312 1.2288-25.4976 24.2176c-21.504 20.48-50.944 48.9472-83.0464 80.7424-64 63.3344-139.6736 141.2096-183.04 196.5056l-0.0512 0.1024z m336.0256-272.9984l8.192-7.5776v-391.168l102.4 44.8V404.736l8.0896 7.5776 2.3552 2.2016 6.912 6.5024 25.2416 23.9616c21.2992 20.3264 50.5344 48.5376 82.432 80.128 64.1024 63.4368 137.5744 139.264 178.688 191.6416A15.872 15.872 0 0 1 854.2208 742.4H169.984a15.872 15.872 0 0 1-12.8-25.6c41.1136-52.48 114.5856-128.256 178.688-191.6928 35.4304-35.1232 71.3216-69.7856 107.6224-104.0896l6.912-6.5024 2.3552-2.2016z"  horiz-adv-x="1024" />
      
      <glyph glyph-name="a-20Close" unicode="&#59334;" d="M783.0016 87.8592l36.1984 36.1984-271.0016 271.0016 259.9424 259.9424L771.9424 691.2 512 431.2576 252.0576 691.2l-36.1984-36.1984 259.9424-259.9424L204.8 124.0576l36.1984-36.1984L512 358.8608l271.0016-271.0016z"  horiz-adv-x="1024" />
      
      <glyph glyph-name="a-20GoToFirst" unicode="&#59335;" d="M787.456 725.7088l-38.912 33.28L427.0592 384l321.536-375.04 38.8608 33.28L494.5408 384l292.864 341.76h0.0512zM307.2 25.6V742.4H256v-716.8h51.2z"  horiz-adv-x="1024" />
      
      <glyph glyph-name="a-20StatusCompleted" unicode="&#59301;" d="M477.7472 195.9424l358.4512 322.56-34.2016 38.0928-324.2496-291.7888-153.5488 138.24-34.2016-38.0928 187.7504-168.96zM1024 384c0-282.7776-229.2224-512-512-512S0 101.2224 0 384 229.2224 896 512 896s512-229.2224 512-512z m-51.2 0a460.8 460.8 0 1 1-921.6 0 460.8 460.8 0 0 1 921.6 0z"  horiz-adv-x="1024" />
      
      <glyph glyph-name="a-20Refresh" unicode="&#59302;" d="M471.3984 716.8l58.6752-58.6752-36.1984-36.2496L373.4016 742.4 493.8752 862.9248l36.1984-36.2496L471.3984 768H512A435.2 435.2 0 1 0 76.8 332.8h51.2A384 384 0 1 1 512 716.8h-40.6016z"  horiz-adv-x="1024" />
      
      <glyph glyph-name="a-20StatusSubmissionFailed" unicode="&#59303;" d="M512 588.8h51.2v-307.2h-51.2V588.8z m51.2-409.6h-51.2v51.2h51.2v-51.2zM512-128c282.7776 0 512 229.2224 512 512S794.7776 896 512 896 0 666.7776 0 384s229.2224-512 512-512z m0 51.2a460.8 460.8 0 1 0 0 921.6 460.8 460.8 0 0 0 0-921.6z"  horiz-adv-x="1024" />
      
      <glyph glyph-name="a-20Search" unicode="&#59304;" d="M528.4864 346.2144a256 256 0 1 0 34.816 37.7856l358.4-373.76-35.84-35.84-357.376 371.8144zM563.3024 537.6a204.8 204.8 0 1 1-409.6 0 204.8 204.8 0 0 1 409.6 0z"  horiz-adv-x="1024" />
      
      <glyph glyph-name="a-20StatusInfo" unicode="&#59305;" d="M486.4 537.6V640h51.2v-102.4h-51.2z m0-102.4v-358.4h51.2V435.2h-51.2zM512-128c282.7776 0 512 229.2224 512 512S794.7776 896 512 896 0 666.7776 0 384s229.2224-512 512-512z m0 51.2a460.8 460.8 0 1 0 0 921.6 460.8 460.8 0 0 0 0-921.6z"  horiz-adv-x="1024" />
      
      <glyph glyph-name="a-20StatusPending" unicode="&#59306;" d="M537.6 396.8V665.6h-51.2v-294.4l215.04-161.28 30.72 40.96-194.56 145.92zM1024 384c0-282.7776-229.2224-512-512-512S0 101.2224 0 384 229.2224 896 512 896s512-229.2224 512-512z m-51.2 0a460.8 460.8 0 1 1-921.6 0 460.8 460.8 0 0 1 921.6 0z"  horiz-adv-x="1024" />
      
      <glyph glyph-name="a-20ChevronCollapse" unicode="&#59307;" d="M237.824 248.5248l274.1248 274.0736 274.0736-274.0736-36.1984-36.1984-237.8752 237.8752-237.8752-237.8752-36.2496 36.1984z"  horiz-adv-x="1024" />
      
      <glyph glyph-name="a-20LocationOn" unicode="&#59308;" d="M512 486.4a103.68 103.68 0 0 0-73.4208 28.9792C419.6352 535.0912 409.1904 561.4592 409.6 588.8c0 28.3136 9.984 52.48 29.952 72.448C459.52 681.216 483.6864 691.2 512 691.2s52.48-9.984 72.448-29.952c19.968-19.968 29.952-44.1344 29.952-72.448s-9.984-52.48-29.952-72.448c-19.968-19.968-44.032-29.952-72.448-29.952z m0 51.2a47.616 47.616 0 0 1 36.2496 14.9504A47.616 47.616 0 0 1 563.2 588.8a47.616 47.616 0 0 1-14.9504 36.2496A47.5648 47.5648 0 0 1 512 640a47.616 47.616 0 0 1-36.2496-14.9504A47.5648 47.5648 0 0 1 460.8 588.8c-0.3584-13.7728 4.6592-27.136 14.0288-37.1712 10.752-9.6256 22.3232-14.0288 37.1712-14.0288zM620.2368 36.864c-26.624-38.144-52.736-76.7488-78.1312-115.712-10.4448-16.128-20.48-32.512-30.1056-49.152-9.7792 16.5376-19.968 32.8704-30.464 48.9472-22.528 34.56-48.64 72.0896-76.032 111.5136C291.1744 196.8128 153.6 394.5984 153.6 554.7008c0 94.4128 34.9184 174.9504 104.8064 241.4592C328.2944 862.72 412.8256 896 512 896c99.1744 0 183.7056-33.28 253.5936-99.84C835.4816 729.6 870.4 649.1136 870.4 554.6496c0-155.0848-136.8576-353.536-250.1632-517.7856z m110.08 722.2272h-0.0512C670.208 816.2816 598.4256 844.8 512 844.8c-86.4256 0-158.208-28.5184-218.2656-85.7088C233.728 702.0032 204.8 634.7776 204.8 554.7008c0-92.416 55.296-207.2064 132.096-328.704 35.4816-56.2688 73.984-111.616 110.848-164.5568l6.144-8.9088c20.0704-28.8768 39.7312-57.1392 57.7536-84.2752a4959.232 4959.232 0 0 0 56.832 83.712l9.5232 13.824a4705.3312 4705.3312 0 0 1 107.776 161.0752c37.8368 60.0064 71.5776 119.6032 95.744 176.2304 24.3712 57.088 37.6832 108.0832 37.6832 151.552 0 80.128-29.0304 147.3536-88.8832 204.4416z"  horiz-adv-x="1024" />
      
      <glyph glyph-name="a-20Marketing" unicode="&#59309;" d="M665.6 793.6L373.76 588.8H0v-358.4h112.384l59.8528-307.2H358.4l-59.8528 307.2h63.0272L665.6-25.6V793.6zM409.6 256.9216V551.424l204.8 143.7184v-610.7136l-204.8 172.4928zM246.3744 230.4l49.8688-256H214.4256l-49.8688 256h81.8176zM358.4 281.6H51.2V537.6h307.2v-256zM786.7904 558.08c37.2224-27.8528 58.0096-86.3744 58.0096-147.2512 0-32.5632-5.8368-63.2832-16.2304-89.088-10.24-25.4464-25.8048-48.0256-46.592-61.5936l-27.9552 42.9056c9.1136 5.9392 19.2 18.3296 27.0336 37.888a189.44 189.44 0 0 1 12.544 69.888c0 52.9408-18.5856 92.16-37.4784 106.2912l30.72 40.96h-0.0512zM998.4 414.5664c0 107.3152-51.3024 202.9568-144.6912 248.4224l-22.4256-46.0288c72.9088-35.4816 115.8656-111.2576 115.8656-202.3936 0-99.1232-52.736-180.6848-136.704-211.3536l17.4592-48.128c107.0592 39.1168 170.496 141.9776 170.496 259.4816z"  horiz-adv-x="1024" />
      
      <glyph glyph-name="a-20Help" unicode="&#59310;" d="M544.1024 256.3584v10.752c0 51.2 29.2864 80.384 58.9824 109.8752 30.5664 30.3104 61.44 61.0304 61.44 116.6336 0 82.432-69.5296 119.7056-145.5104 119.7056-45.1072 0-76.6464-8.6016-113.2032-19.3536l4.3008-59.4944c30.8224 10.752 63.0784 19.3536 96.768 19.3536 42.2912 0 80.9984-22.9376 80.9984-68.096 0-43.776-23.7056-67.7888-48.896-93.3376l-0.0512-0.0512c-28.9792-29.3888-60.0064-60.928-60.0064-126.7712v-9.216h65.1776zM549.888 128v73.7792l-0.0512 0.1024H473.1904V128h76.6976zM512-128c282.7776 0 512 229.2224 512 512S794.7776 896 512 896 0 666.7776 0 384s229.2224-512 512-512z m325.8368 186.1632A460.8 460.8 0 1 0 186.1632 709.888a460.8 460.8 0 0 0 651.6736-651.7248z"  horiz-adv-x="1024" />
      
      <glyph glyph-name="a-20Login" unicode="&#59311;" d="M486.4 742.4h307.2A76.8 76.8 0 0 0 870.4 665.6v-563.2a76.8 76.8 0 0 0-76.8-76.8h-307.2v-51.2h307.2a128 128 0 0 1 128 128v563.2A128 128 0 0 1 793.6 793.6h-307.2v-51.2zM460.8 226.9184l44.2368-47.7184L665.6 358.4 505.0368 537.6 460.8 489.8816l88.4224-97.9968 4.608-7.8848H179.2v-51.2h376.832l-6.8096-7.936L460.8 226.9184z"  horiz-adv-x="1024" />
      
      <glyph glyph-name="a-20MoreVertical" unicode="&#59312;" d="M512 537.6a51.2 51.2 0 1 0 0 102.4 51.2 51.2 0 0 0 0-102.4z m0-204.8a51.2 51.2 0 1 0 0 102.4 51.2 51.2 0 0 0 0-102.4z m0-204.8a51.2 51.2 0 1 0 0 102.4 51.2 51.2 0 0 0 0-102.4z"  horiz-adv-x="1024" />
      
      <glyph glyph-name="a-20Heart" unicode="&#59313;" d="M507.3408 588.1856l-42.0864 92.5696C450.2016 713.984 394.1376 793.6 252.416 793.6c-64.8704 0-113.9712-30.1056-148.224-73.4208C68.9664 675.6352 51.2 618.9568 51.2 573.3376c0-91.392 57.2416-206.848 258.1504-398.7968a4813.312 4813.312 0 0 1 202.24-183.9616c60.416 52.48 153.3952 134.9632 209.408 190.464 6.2464 6.1952 12.9024 12.7488 19.9168 19.5584 42.8032 41.984 97.4336 95.488 143.872 156.7232 54.784 72.192 90.7264 145.8176 87.8592 213.8624-2.7648 65.1264-24.5248 120.7808-60.1088 159.488C877.6704 768.512 826.5216 793.6 757.0432 793.6c-107.4176 0-179.2-78.336-200.3968-116.5312l-49.3056-88.8832zM511.8976-76.8a1456.7936 1456.7936 0 0 1-11.9296 10.1376c-30.976 26.112-105.2672 88.832-225.9968 204.1856C72.0896 330.4448 0 459.0592 0 573.3376S86.528 844.8 252.3648 844.8c119.9104 0 190.8224-49.8688 229.0688-95.4368 14.6432-17.408 24.4736-34.304 30.464-47.4624a251.392 251.392 0 0 0 33.6384 45.568C587.5712 793.6 659.7632 844.8 756.992 844.8c165.888 0 260.5056-121.4464 266.8032-271.4624 6.7584-160.7168-155.2384-319.3344-247.4496-409.7024-6.8608-6.656-13.312-13.056-19.3024-18.944-69.2224-68.608-192.256-176.2304-245.1456-221.4912z"  horiz-adv-x="1024" />
      
      <glyph glyph-name="a-20Plus" unicode="&#59314;" d="M486.4 358.4V-25.6h51.2v384H921.6v51.2h-384V793.6h-51.2v-384H102.4v-51.2h384z"  horiz-adv-x="1024" />
      
      <glyph glyph-name="a-20LinkChain" unicode="&#59315;" d="M128 384A179.2 179.2 0 0 0 307.2 563.2h153.6v-51.2H307.2a128 128 0 1 1 0-256h153.6v-51.2H307.2A179.2 179.2 0 0 0 128 384zM665.6 358.4H358.4v51.2h307.2v-51.2zM716.8 204.8a179.2 179.2 0 1 1 0 358.4h-153.6v-51.2h153.6a128 128 0 0 0 0-256h-153.6v-51.2h153.6z"  horiz-adv-x="1024" />
      
      <glyph glyph-name="a-20Logout" unicode="&#59316;" d="M537.6-25.6v51.2h-307.2A76.8 76.8 0 0 0 153.6 102.4v563.2A76.8 76.8 0 0 0 230.4 742.4h307.2V793.6h-307.2A128 128 0 0 1 102.4 665.6v-563.2A128 128 0 0 1 230.4-25.6h307.2zM665.6 226.9184l44.2368-47.7184L870.4 358.4 709.8368 537.6 665.6 489.8816l88.4224-97.9968 4.608-7.8848H384v-51.2h376.832l-6.8096-7.936L665.6 226.9184z"  horiz-adv-x="1024" />
      
      <glyph glyph-name="a-20Files" unicode="&#59317;" d="M512 793.6H153.6v-921.6h716.8V499.6096h-51.2V-76.8H204.8V742.4h307.2V793.6zM307.2 281.6h409.6v51.2H307.2v-51.2z m409.6-153.6H307.2v51.2h409.6v-51.2zM665.6 793.6l204.8-204.8h-204.8V793.6z"  horiz-adv-x="1024" />
      
      <glyph glyph-name="a-20Volume" unicode="&#59291;" d="M307.2 588.8l307.2 204.8v-819.2l-307.2 204.8H51.2V588.8h256z m256 109.1072L358.4 561.408v-354.816l204.8-136.4992V697.9072zM307.2 230.4V537.6H102.4v-307.2h204.8zM735.5904 506.88c37.2224-27.8528 58.0096-86.3744 58.0096-147.2512 0-32.5632-5.8368-63.2832-16.2304-89.088-10.24-25.4464-25.8048-48.0256-46.592-61.5936l-27.9552 42.9056c9.1136 5.9392 19.2 18.3296 27.0336 37.888a189.44 189.44 0 0 1 12.544 69.888c0 52.9408-18.5856 92.16-37.4784 106.2912l30.72 40.96h-0.0512zM947.2 363.3664c0 107.3152-51.3024 202.9568-144.6912 248.4224l-22.4256-46.0288c72.9088-35.4816 115.8656-111.2576 115.8656-202.3936 0-99.1232-52.736-180.6848-136.704-211.3536l17.4592-48.128c107.0592 39.1168 170.496 141.9776 170.496 259.4816z"  horiz-adv-x="1024" />
      
      <glyph glyph-name="a-20ShoppingCartAdd" unicode="&#59292;" d="M0 742.4h182.9376l106.0864-665.6H870.4v51.2H332.6976l-16.3328 102.4h561.664l68.7104 353.4848-50.2784 9.7792L835.84 281.6H308.224L226.6624 793.6H0v-51.2zM563.2 742.4v-153.6H409.6v-51.2h153.6v-153.6h51.2V537.6h153.6V588.8h-153.6V742.4h-51.2zM409.6-76.8a51.2 51.2 0 1 1 0 102.4 51.2 51.2 0 0 1 0-102.4z m358.4 51.2a51.2 51.2 0 1 0-102.4 0 51.2 51.2 0 0 0 102.4 0z"  horiz-adv-x="1024" />
      
      <glyph glyph-name="a-20Settings" unicode="&#59293;" d="M512 179.2c-112.9472 0-204.8 91.8528-204.8 204.8s91.8528 204.8 204.8 204.8 204.8-91.8528 204.8-204.8-91.8528-204.8-204.8-204.8z m0 51.2c84.6336 0 153.6 68.9664 153.6 153.6s-68.9664 153.6-153.6 153.6-153.6-68.9664-153.6-153.6 68.9664-153.6 153.6-153.6zM828.928 752.5376c30.3104 10.7008 70.5536 1.6384 90.2656-32.6656l94.8224-159.5904 0.3072-0.512a74.0352 74.0352 0 0 0-19.1488-95.232l-0.2048-0.1024-77.1584-58.6752c0.9216-14.4896 0.9216-29.0304 0-43.52l77.312-58.8288c30.1568-23.0912 36.7616-63.7952 19.2-95.1296l-0.3072-0.5632-94.8224-159.5904a74.6496 74.6496 0 0 0-91.392-32.256l-0.4096 0.2048-92.7232 36.1984c-12.8-8.192-26.112-15.872-40.0896-22.8352l-13.824-94.0032c-5.3248-38.6048-38.9632-63.4368-73.9328-63.4368H417.28c-34.9696 0-68.6592 24.832-73.9328 63.4368l-13.824 93.952a397.1072 397.1072 0 0 0-40.3456 22.8352l-93.2864-36.4544-0.768-0.3072c-30.3104-10.7008-70.5536-1.6384-90.2656 32.6656L10.0864 207.7184l-0.3072 0.512a74.0352 74.0352 0 0 0 19.1488 95.232l0.2048 0.1024 77.1584 58.6752a332.3392 332.3392 0 0 0 0 43.52L28.9792 464.5376a73.5232 73.5232 0 0 0-18.432 96.4096L104.9088 719.872a74.5984 74.5984 0 0 0 91.392 32.256l0.4096-0.2048 92.672-36.1984c12.8 8.192 26.112 15.872 40.1408 22.8352l13.824 94.0032C348.672 871.168 382.4128 896 417.3824 896h189.44c35.0208 0 68.608-24.832 73.9328-63.4368l13.824-93.952c13.9776-6.8608 27.392-14.4896 40.3456-22.8352l93.2864 36.4544 0.8192 0.3072h-0.0512z m35.1232-323.3792l99.9424 76.032a22.8352 22.8352 0 0 1 5.632 29.4912l-94.72 159.4368a24.064 24.064 0 0 1-28.8768 10.1376l-117.9648-46.08c-24.576 18.432-51.2 33.6384-80.0256 45.1584l-18.0224 122.112A22.8864 22.8864 0 0 1 606.8224 844.8H417.28a22.8864 22.8864 0 0 1-23.2448-19.3536l-17.9712-122.112a366.592 366.592 0 0 1-80.0768-45.1584l-117.9648 46.08a23.3984 23.3984 0 0 1-28.8768-10.1376l-94.72-159.4368a22.3232 22.3232 0 0 1 5.632-29.4912l99.9424-76.032c-2.048-14.9504-3.1744-30.0544-3.2768-45.1584 0-15.2064 1.3824-30.4128 3.2768-45.1584l-99.9424-76.032a22.8352 22.8352 0 0 1-5.632-29.4912l94.72-159.4368c5.632-10.1376 18.432-13.824 28.8768-10.1376l117.9648 46.08c24.576-18.432 51.2-33.6384 80.0768-45.1584l17.92-122.112a22.8864 22.8864 0 0 1 23.296-19.3536h189.44a22.8864 22.8864 0 0 1 23.2448 19.3536l18.0224 122.112a366.6944 366.6944 0 0 1 80.0256 45.1584l117.9648-46.08c10.9056-4.1472 23.1936 0 28.928 10.1376l94.72 159.4368a22.8352 22.8352 0 0 1-5.6832 29.4912l-99.9424 76.032c1.8944 14.7456 3.2768 29.4912 3.2768 45.1584 0 15.6672-1.3824 30.4128-3.2768 45.1584z"  horiz-adv-x="1024" />
      
      <glyph glyph-name="a-20Profile" unicode="&#59294;" d="M716.8 614.4a230.4 230.4 0 1 0-460.9024 0A230.4 230.4 0 0 0 716.8 614.4z m-51.2 0a179.2 179.2 0 1 1-358.4 0 179.2 179.2 0 0 1 358.4 0zM51.2 25.6a307.2 307.2 0 0 0 307.2 307.2h256a307.2 307.2 0 0 0 307.2-307.2v-153.6H51.2v153.6z m51.2 0v-102.4h768v102.4a256 256 0 0 1-256 256H358.4a256 256 0 0 1-256-256z"  horiz-adv-x="1024" />
      
      <glyph glyph-name="a-20StatusCanceled" unicode="&#59295;" d="M506.2656 425.8816l181.0432 181.0432 36.1984-36.2496-181.0944-180.992 181.0944-181.0944-36.1984-36.1984-181.0432 181.0432-180.992-181.0432-36.2496 36.1984L470.016 389.6832 289.024 570.6752l36.2496 36.2496 180.992-181.0432zM512-128c282.7776 0 512 229.2224 512 512S794.7776 896 512 896 0 666.7776 0 384s229.2224-512 512-512z m0 51.2a460.8 460.8 0 1 0 0 921.6 460.8 460.8 0 0 0 0-921.6z"  horiz-adv-x="1024" />
      
      <glyph glyph-name="a-20Upload" unicode="&#59296;" d="M657.1008 537.6l34.0992 33.1776L512 742.4 332.8 570.7776 366.8992 537.6 486.4 653.4656V230.4h51.2V653.5168L657.1008 537.6zM870.4 230.4v-76.8a76.8 76.8 0 0 0-76.8-76.8h-563.2A76.8 76.8 0 0 0 153.6 153.6V230.4H102.4v-76.8A128 128 0 0 1 230.4 25.6h563.2a128 128 0 0 1 128 128V230.4h-51.2z"  horiz-adv-x="1024" />
      
      <glyph glyph-name="a-20Store" unicode="&#59297;" d="M819.2 742.4H204.8V793.6h614.4v-51.2zM819.2 230.4h-204.8v-307.2H153.6v307.2H51.2l65.8432 409.6h789.9136L972.8 230.4h-102.4v-307.2h-51.2v307.2zM204.8 230.4v-256h358.4v256H204.8z m-93.4912 51.2h801.4336l-49.408 307.2H160.6656l-49.3568-307.2z"  horiz-adv-x="1024" />
      
      <glyph glyph-name="a-20ShoppingCart" unicode="&#59298;" d="M0 716.8h183.6032l117.0432-614.4H870.4v51.2H343.04L328.3456 230.4h537.6512l86.4256 460.8H240.5376l-14.592 76.8H0v-51.2zM250.368 640h640.4096l-67.2256-358.4H318.6176L250.368 640zM409.6-76.8a51.2 51.2 0 1 1 0 102.4 51.2 51.2 0 0 1 0-102.4z m409.6 51.2a51.2 51.2 0 1 0-102.4 0 51.2 51.2 0 0 0 102.4 0z"  horiz-adv-x="1024" />
      
      <glyph glyph-name="a-20Share" unicode="&#59299;" d="M870.4 537.6a153.6 153.6 0 1 1-152.7296 137.4208l-455.6288-182.272a153.6 153.6 0 1 1 0-217.5488l455.68-182.2208a153.6 153.6 0 1 1 13.8752 49.5616l-439.1424 175.6672C301.9264 338.176 307.2 360.448 307.2 384c0 23.552-5.2736 45.824-14.7456 65.792l439.0912 175.616A153.6 153.6 0 0 1 870.4 537.6z m0 51.2a102.4 102.4 0 1 0 0 204.8 102.4 102.4 0 0 0 0-204.8zM153.6 281.6a102.4 102.4 0 1 0 0 204.8 102.4 102.4 0 0 0 0-204.8z m819.2-204.8a102.4 102.4 0 1 0-204.8 0 102.4 102.4 0 0 0 204.8 0z"  horiz-adv-x="1024" />
      
      <glyph glyph-name="a-20Visibility" unicode="&#59300;" d="M1024 358.4S884.3776 691.2 512 691.2 0 358.4 0 358.4 139.6224 25.6 512 25.6s512 332.8 512 332.8z m-952.576 25.4464A585.728 585.728 0 0 0 152.9344 488.96C227.328 564.9408 342.8352 640 512 640c169.1136 0 284.672-75.0592 359.0656-151.04a585.728 585.728 0 0 0 96-130.56 585.728 585.728 0 0 0-96-130.56C796.672 151.8592 681.1648 76.8 512 76.8c-169.1136 0-284.672 75.0592-359.0656 151.04a585.6768 585.6768 0 0 0-96 130.56c3.7376 7.0144 8.5504 15.6672 14.4896 25.4464zM512 230.4a128 128 0 1 0 0 256 128 128 0 0 0 0-256z m0-51.2a179.2 179.2 0 1 1 0 358.4 179.2 179.2 0 0 1 0-358.4z"  horiz-adv-x="1024" />
      
      <glyph glyph-name="plus" unicode="&#59252;" d="M469.333333 341.333333V-42.666667h85.333334V341.333333H938.666667v85.333334H554.666667V810.666667h-85.333334v-384H85.333333v-85.333334h384z"  horiz-adv-x="1024" />
      
      <glyph glyph-name="minus" unicode="&#59281;" d="M85.333333 426.666667h853.333334v-85.333334H85.333333v85.333334z"  horiz-adv-x="1024" />
      
      <glyph glyph-name="Benefits" unicode="&#59282;" d="M512 896c106.154667 0 207.36-32.426667 291.84-91.306667l-48.64-69.973333a426.666667 426.666667 0 1 1 167.594667-234.837333l82.090666 23.04A508.330667 508.330667 0 0 0 1024 384a512 512 0 1 0-512 512zM425.386667 154.282667l542.122666 496.896-57.685333 62.976-481.877333-441.770667-141.738667 141.824-60.416-60.416 199.594667-199.509333z"  horiz-adv-x="1024" />
      
      <glyph glyph-name="GoToFirst" unicode="&#59283;" d="M823.125333-72.874667L366.336 384 823.125333 840.874667l60.416-60.416L486.997333 384l396.544-396.458667-60.416-60.330666zM256 810.666667v-853.333334H170.666667V810.666667h85.333333z"  horiz-adv-x="1024" />
      
      <glyph glyph-name="ChevronNext1" unicode="&#59284;" d="M371.541333 12.458667l-60.416 60.416L622.336 384 311.125333 695.125333l60.416 60.416L742.997333 384l-371.456-371.541333z"  horiz-adv-x="1024" />
      
      <glyph glyph-name="ChevronCollapse" unicode="&#59285;" d="M883.541333 243.541333l-60.416-60.416L512 494.336 200.874667 183.125333l-60.416 60.416L512 614.997333l371.541333-371.456z"  horiz-adv-x="1024" />
      
      <glyph glyph-name="ChevronExpand1" unicode="&#59286;" d="M140.458667 524.458667l60.416 60.416L512 273.664l311.125333 311.210667 60.416-60.416L512 153.002667 140.458667 524.458667z"  horiz-adv-x="1024" />
      
      <glyph glyph-name="close" unicode="&#59287;" d="M783.445333 52.138667l60.330667 60.330666L572.245333 384l271.530667 271.530667-60.330667 60.330666-271.530666-271.530666L240.384 715.946667l-60.330667-60.330667L451.584 384 180.053333 112.469333l60.330667-60.330666 271.530667 271.530666 271.530666-271.530666z"  horiz-adv-x="1024" />
      
      <glyph glyph-name="ChevronBack" unicode="&#59288;" d="M652.458667 755.541333l60.416-60.416L401.664 384l311.210667-311.125333-60.416-60.330667L281.002667 384l371.456 371.541333z"  horiz-adv-x="1024" />
      
      <glyph glyph-name="GoToLast" unicode="&#59289;" d="M657.664 384L200.874667 840.874667l-60.416-60.416L537.002667 384l-396.544-396.458667 60.416-60.416L657.664 384zM768 810.666667v-853.333334h85.333333V810.666667H768z"  horiz-adv-x="1024" />
      
      <glyph glyph-name="Cached" unicode="&#59290;" d="M896 384a384 384 0 0 1-609.536 310.869333l61.354667-61.354666A298.24 298.24 0 0 0 512 682.666667 298.666667 298.666667 0 0 0 810.666667 384H682.666667l170.666666-170.666667 170.666667 170.666667h-128zM676.181333 134.485333l61.354667-61.354666A384 384 0 0 0 128 384h85.333333a298.666667 298.666667 0 0 1 462.848-249.514667zM170.666667 554.666667L0 384h341.333333L170.666667 554.666667z"  horiz-adv-x="1024" />
      
      <glyph glyph-name="a-16LocationOn" unicode="&#59235;" d="M420.224 484.224C396.544 508.864 383.488 541.824 384 576c0 35.392 12.48 65.6 37.44 90.56C446.4 691.52 476.608 704 512 704s65.6-12.48 90.56-37.44c24.96-24.96 37.44-55.168 37.44-90.56s-12.48-65.6-37.44-90.56C577.6 460.48 547.392 448 512 448a129.6 129.6 0 0 0-91.776 36.224z m45.312 45.312C478.976 517.504 493.44 512 512 512a59.52 59.52 0 0 1 45.312 18.688A59.52 59.52 0 0 1 576 576a59.52 59.52 0 0 1-18.688 45.312A59.456 59.456 0 0 1 512 640a59.52 59.52 0 0 1-45.312-18.688A59.456 59.456 0 0 1 448 576c-0.448-17.216 5.824-33.92 17.536-46.464zM548.736-61.888a5337.6 5337.6 0 0 0 59.904 98.752l0.256 0.448C710.016 201.536 832 399.744 832 554.688c0 94.464-31.168 174.912-93.568 241.472S600.576 896 512 896 347.968 862.72 285.568 796.16C223.168 729.6 192 649.152 192 554.688c0-159.936 122.688-357.568 224.64-521.792l3.2-5.12c19.456-31.36 38.144-61.44 54.976-89.856 12.992-21.632 25.344-43.648 37.184-65.92 10.496 20.544 22.976 42.688 36.736 66.112zM768 554.624c0-87.744-48.96-201.216-117.952-323.712a4712.96 4712.96 0 0 0-96-160.64l-8.448-13.76c-11.584-18.816-23.04-37.44-33.984-55.68-11.2 18.432-22.848 37.248-34.624 56.192l-5.504 8.896-1.728 2.752a4448.064 4448.064 0 0 0-97.024 161.408C304.448 351.232 256 464.32 256 554.688c0 78.784 25.408 143.488 76.288 197.76C382.976 806.4 441.728 832 512 832c70.272 0 129.024-25.536 179.712-79.616C742.592 698.24 768 633.472 768 554.624z"  horiz-adv-x="1024" />
      
      <glyph glyph-name="a-16Help" unicode="&#59223;" d="M960 384A448 448 0 1 1 64 384a448 448 0 0 1 896 0z m64 0A512 512 0 1 0-0.064 384 512 512 0 0 0 1024 384zM551.04 276.992v-11.52H481.024v9.984c0 70.528 33.28 104.32 64.32 135.68 27.072 27.52 52.48 53.184 52.48 100.096 0 48.384-41.536 72.96-86.848 72.96-36.096 0-70.656-9.216-103.68-20.736L402.752 627.2c39.168 11.52 72.96 20.736 121.344 20.736 81.408 0 155.904-39.936 155.904-128.256 0-59.52-33.088-92.48-65.792-124.928-31.808-31.616-63.168-62.848-63.168-117.76z m6.08-69.888V128H474.944v79.104h82.176z"  horiz-adv-x="1024" />
      
      <glyph glyph-name="a-16Home" unicode="&#59271;" d="M800 320H1024L512 896 0 320h224v-448H448v256h128v-256h224V320z m-64-384H640v256H384v-256H288V384H142.528L512 800 881.472 384H736v-448z"  horiz-adv-x="1024" />
      
      <glyph glyph-name="a-16Dashboard" unicode="&#59277;" d="M0 320h448V896H0v-576z m64 512h320v-448H64V832z m512-960V448h448v-576H576z m64 512v-448h320V384h-320zM0 192v-320h448v320H0z m384-64v-192H64v192h320z m192 448V896h448v-320H576z m64 256v-192h320V832h-320z"  horiz-adv-x="1024" />
      
      <glyph glyph-name="a-16Bell" unicode="&#59278;" d="M572.672 852.032a64 64 0 0 0 3.008-26.368C721.92 796.416 832 666.496 832 482.816c0-138.432 27.968-276.928 46.912-354.88 9.728-39.936 17.088-64 17.088-64H128s7.36 24.064 17.088 64C164.032 205.888 192 344.384 192 482.816 192 651.904 302.208 792.96 448.32 825.024A64 64 0 0 0 572.672 852.032zM210.88 128h602.24a1981.568 1981.568 0 0 0-11.84 54.144c-16.448 80.768-33.28 190.08-33.28 300.8C768 660.16 650.24 768 512 768 375.744 768 256 645.76 256 482.816c0-110.592-16.832-219.904-33.28-300.736-3.712-18.112-7.68-36.16-11.84-54.144zM602.496-90.496A128 128 0 0 1 640 0H384a128 128 0 0 1 218.496-90.496z"  horiz-adv-x="1024" />
      
      <glyph glyph-name="a-16BusinessAdd" unicode="&#59279;" d="M896 768H128V832h768v-64zM128-64v320H64l64 384h768l64-384H576v-320H128z m384 320H192v-256h320v256zM139.52 320h744.896l-42.624 256H182.208L139.52 320zM832 192v-128h-128v-64h128v-128h64v128h128v64h-128v128h-64z"  horiz-adv-x="1024" />
      
      <glyph glyph-name="a-16Admin" unicode="&#59280;" d="M789.12 488L478.72 211.968 297.28 393.28l45.312 45.248 138.624-138.624 265.408 235.968 42.56-47.872zM512 832L128 608V384c0-226.048 163.84-396.672 384-448 220.16 51.328 384 221.952 384 448V608L512 832zM192 571.264l320 186.624 320-186.624V384c0-185.92-130.688-332.352-320-382.08-189.312 49.728-320 196.16-320 382.08V571.264z"  horiz-adv-x="1024" />
      
      <glyph glyph-name="a-16AccountCircle" unicode="&#59221;" d="M512 320a192 192 0 1 1 0 384 192 192 0 0 1 0-384z m0 64a128 128 0 1 0 0 256 128 128 0 0 0 0-256zM1024 384A512 512 0 1 0-0.064 384 512 512 0 0 0 1024 384z m-218.56-338.56v0.064a272 272 0 0 1-15.36 14.272 391.872 391.872 0 0 1-56.96 40.704A431.552 431.552 0 0 1 512 160a431.552 431.552 0 0 1-221.12-59.52 392.768 392.768 0 0 1-56.96-40.704 218.88 218.88 0 0 1-15.36-14.336A446.272 446.272 0 0 1 512-64a446.272 446.272 0 0 1 293.44 109.44z m45.248 45.312a448 448 0 1 1-677.376 0l1.408 1.408c5.568 5.568 11.328 10.88 17.28 16a450.688 450.688 0 0 0 66.304 47.36A495.232 495.232 0 0 0 512 224a495.488 495.488 0 0 0 253.696-68.416c23.424-13.76 45.632-29.632 66.24-47.36 6.528-5.504 12.8-11.328 18.752-17.472z"  horiz-adv-x="1024" />
      
      <glyph glyph-name="a-16Volume1" unicode="&#59232;" d="M320 576l320 192v-768l-320 192H64V576h256z m256 78.976l-192-115.2v-311.552l192-115.2V654.976zM320 256V512H128v-256h192zM722.752 583.872l-26.24-58.368c35.072-15.744 60.672-52.992 60.672-97.6 0-46.464-27.776-84.864-64.96-99.392l23.296-59.648c62.464 24.448 105.664 86.976 105.664 159.04 0 69.248-39.936 129.728-98.432 155.968zM806.144 694.528l-27.904-57.6c73.856-35.904 117.632-112.32 117.632-204.992 0-100.736-53.76-183.04-138.88-214.016l21.76-60.16c113.92 41.344 181.12 150.272 181.12 274.176 0 113.088-54.336 214.4-153.728 262.592z"  horiz-adv-x="1024" />
      
      <glyph glyph-name="a-16Upload1" unicode="&#59226;" d="M725.376 576L768 617.472 544 832 320 617.472 362.624 576 512 720.832V256h64V720.896L725.376 576zM832 256v-96a96 96 0 0 0-96-96h-448A96 96 0 0 0 192 160V256H128v-96A160 160 0 0 1 288 0h448a160 160 0 0 1 160 160V256h-64z"  horiz-adv-x="1024" />
      
      <glyph glyph-name="a-16Store" unicode="&#59236;" d="M896 768H128V832h768v-64z m-64-512H576v-320H128v320H64l64 384h768l64-384h-64v-320h-64v320zM192 256v-256h320v256H192z m-52.48 64h744.896l-42.624 256H182.208L139.52 320z"  horiz-adv-x="1024" />
      
      <glyph glyph-name="a-16StatusPending" unicode="&#59245;" d="M544.029763 639.982081v-239.983201l243.182977-182.387233-38.397312-51.196416-268.781186 201.585889V639.982081h63.995521zM874.054661 21.977342A511.964163 511.964163 0 1 1 149.945349 746.022658a511.964163 511.964163 0 0 1 724.109312-724.045316z m-45.244833 45.244832a447.968642 447.968642 0 1 0-633.555651 633.491656 447.968642 447.968642 0 0 0 633.555651-633.491656z"  horiz-adv-x="1024" />
      
      <glyph glyph-name="a-16StatusCompleted" unicode="&#59246;" d="M789.772561 552.628196l-363.174578-340.456168-192.562521 180.467367 43.772936 46.71673 148.789585-139.510234 319.401642 299.499035 43.772936-46.71673zM874.054661 21.977342A511.964163 511.964163 0 1 1 149.945349 746.022658a511.964163 511.964163 0 0 1 724.109312-724.045316z m-45.244833 45.244832a447.968642 447.968642 0 1 0-633.555651 633.491656 447.968642 447.968642 0 0 0 633.555651-633.491656z"  horiz-adv-x="1024" />
      
      <glyph glyph-name="a-16Language" unicode="&#59224;" d="M559.09632-125.888A512 512 0 0 1 562.10432 893.632C544.37632 896 531.83232 896 512.37632 896c-18.24 0-32 0-46.72-2.112a512 512 0 0 1-3.008-1019.52c17.728-2.368 17.728-2.368 49.728-2.368s32 0 46.72 2.112z m272.768 195.84a447.552 447.552 0 0 0-206.912-119.68 959.744 959.744 0 0 1 107.84 168.768c35.2-13.504 68.48-30.08 99.072-49.088z m41.856 49.216a644.48 644.48 0 0 1-115.008 58.496A585.6 585.6 0 0 1 799.16032 352h160a445.568 445.568 0 0 0-85.504-232.832zM959.16032 416h-159.616a624.32 624.32 0 0 1-33.152 171.52 519.04 519.04 0 0 1 108.8 59.2A445.568 445.568 0 0 0 959.28832 416z m-223.68 0H289.65632a527.616 527.616 0 0 0 37.12 153.92c59.136-16.768 121.728-25.92 185.6-25.92 69.76 0 133.952 7.36 193.28 23.36 16.896-48.832 26.88-99.776 29.824-151.36z m-0.32-64h-0.128a523.904 523.904 0 0 0-37.12-153.92 681.28 681.28 0 0 1-185.6 25.92c-69.76 0-133.888-7.36-193.28-23.36A557.312 557.312 0 0 0 289.33632 352h445.824z m-509.696 64h-160a445.632 445.632 0 0 0 85.568 232.832c35.456-22.848 74.048-42.496 115.008-58.496A585.6 585.6 0 0 1 225.46432 416z m-160-64h159.68c2.88-58.432 14.08-116.224 33.152-171.52a519.04 519.04 0 0 1-108.8-59.2A445.632 445.632 0 0 0 65.46432 352z m768.512 343.936a455.488 455.488 0 0 0-91.328-48.96A756.224 756.224 0 0 1 635.70432 814.72a447.808 447.808 0 0 0 198.272-118.848v0.064z m-152.704-68.8c-51.2-13.056-107.072-19.136-168.96-19.136a615.68 615.68 0 0 0-158.784 20.992c37.12 73.024 87.04 142.08 141.76 202.688a455.04 455.04 0 0 0 38.784-0.192c61.632-62.016 112-130.112 147.2-204.352zM529.40032-63.68a461.056 461.056 0 0 0-38.784 0.192c-61.632 62.016-112.064 130.112-147.2 204.352 51.136 13.056 107.072 19.136 168.896 19.136a615.68 615.68 0 0 0 158.784-20.992c-37.12-73.024-87.04-142.08-141.696-202.688zM399.73632 817.728A959.808 959.808 0 0 1 291.89632 648.96a587.648 587.648 0 0 0-99.072 49.088 447.552 447.552 0 0 0 206.912 119.68zM282.04032 121.024a756.736 756.736 0 0 1 106.88-167.808 447.808 447.808 0 0 0-198.144 118.848 455.68 455.68 0 0 0 91.264 48.96z"  horiz-adv-x="1024" />
      
      <glyph glyph-name="a-16Marketing" unicode="&#59247;" d="M704 832L423.36 640H0v-384h139.648l58.176-320H384l-58.24 320h66.432L704 0V832zM448 292.992V579.2l192 131.52v-575.36L448 292.992zM260.8 256l46.528-256h-56.128l-46.528 256h56.128zM384 320H64V576h320v-256zM786.752 583.872c58.496-26.24 98.432-86.72 98.432-155.968 0-72.064-43.2-134.592-105.6-159.04l-23.36 59.648c37.184 14.528 64.96 52.928 64.96 99.392 0 44.608-25.6 81.856-60.672 97.6l26.24 58.368zM870.144 694.528c99.392-48.192 153.728-149.504 153.728-262.592 0-123.904-67.2-232.832-181.12-274.176l-21.76 60.16c85.12 30.976 138.88 113.28 138.88 214.016 0 92.672-43.776 169.088-117.632 204.992l27.904 57.6z"  horiz-adv-x="1024" />
      
      <glyph glyph-name="a-16Left" unicode="&#59248;" d="M704.018563 128.017919v63.99552H448.036482V635.118422H384.040962V128.017919h319.977601zM874.054661 21.977342A511.964163 511.964163 0 1 1 149.945349 746.022658a511.964163 511.964163 0 0 1 724.109312-724.045316z m-45.244833 45.244832a447.968642 447.968642 0 1 0-633.555651 633.491656 447.968642 447.968642 0 0 0 633.555651-633.491656z"  horiz-adv-x="1024" />
      
      <glyph glyph-name="a-16Search" unicode="&#59255;" d="M566.784 281.92a309.12 309.12 0 1 0 47.296 47.36l345.856-345.984-47.36-47.296-345.792 345.92z m46.72 240.96a240.448 240.448 0 1 1-480.896 0 240.448 240.448 0 0 1 480.896 0z"  horiz-adv-x="1024" />
      
      <glyph glyph-name="a-16StatusCanceled" unicode="&#59256;" d="M647.670506 564.947334L512.000003 429.14884l-135.670504 135.734498-45.244832-45.244833 135.670503-135.798494-135.670503-135.670503 45.244832-45.308828 135.670504 135.862489 135.798494-135.798494 45.244832 45.244833L557.244835 383.968002l135.670503 135.734499-45.180837 45.244833zM874.022661 21.945344A511.964163 511.964163 0 1 0 149.977344 746.054656a511.964163 511.964163 0 0 0 724.045317-724.109312z m-45.244833 45.244833a447.968642 447.968642 0 1 1-633.491656 633.555651 447.968642 447.968642 0 0 1 633.491656-633.555651z"  horiz-adv-x="1024" />
      
      <glyph glyph-name="a-16ShoppingCart" unicode="&#59260;" d="M0 768h197.76l128-640H896v64H378.24l-12.8 64h525.696l74.624 448H275.84l-25.6 128H0v-64z m288.64-128h601.6l-53.376-320H352.64l-64 320zM448-64a64 64 0 1 1 0 128 64 64 0 0 1 0-128z m384 64a64 64 0 1 0-128 0 64 64 0 0 0 128 0z"  horiz-adv-x="1024" />
      
      <glyph glyph-name="a-16Play" unicode="&#59263;" d="M192-64l768 448L192 832v-896zM256 720.576L832.96 384 256 47.424V720.576z"  horiz-adv-x="1024" />
      
      <glyph glyph-name="a-16Mail" unicode="&#59265;" d="M0 640a128 128 0 0 0 128 128h768a128 128 0 0 0 128-128v-512a128 128 0 0 0-128-128H128a128 128 0 0 0-128 128V640z m128 64a64.64 64.64 0 0 1-8.256-0.512L512 423.296l392.256 280.192A71.488 71.488 0 0 1 896 704H128z m-60.16-42.112A63.872 63.872 0 0 1 64 640v-512a64 64 0 0 1 64-64h768a64 64 0 0 1 64 64V640a63.808 63.808 0 0 1-3.84 21.888L512 344.64 67.84 661.888z"  horiz-adv-x="1024" />
      
      <glyph glyph-name="a-16NavigationApps" unicode="&#59267;" d="M64 832v-256h256V832H64z m192-64v-128H128V768h128zM64 512v-256h256V512H64z m192-64v-128H128V448h128z m-192-512v256h256v-256H64z m64 192v-128h128v128H128zM384 832v-256h256V832H384z m192-64v-128H448V768h128z m-192-512V512h256v-256H384z m64 192v-128h128V448H448z m-64-256v-256h256v256H384z m192-64v-128H448v128h128z m128 448V832h256v-256h-256z m64 192v-128h128V768h-128z m-64-256v-256h256V512h-256z m192-64v-128h-128V448h128z m-192-512v256h256v-256h-256z m64 192v-128h128v128h-128z"  horiz-adv-x="1024" />
      
      <glyph glyph-name="a-16Map1" unicode="&#59270;" d="M675.712 737.92l-256.064 128L64 775.232v-886.592l350.592 140.16 254.72-127.36L960-6.016V808.96l-284.288-71.04zM128-16.64V725.76l256 65.088v-705.152l-256-102.4z m320 100.48V780.16l192-96v-696.32l-192 96z m256 595.136l192 48v-686.08l-192-61.12V678.976z"  horiz-adv-x="1024" />
      
      <glyph glyph-name="a-16StatusInfo" unicode="&#59229;" d="M480.002242 703.945604h63.995521v-127.991041h-63.995521V703.945604zM480.002242 127.985921V447.963523h63.995521v-319.977602h-63.995521zM874.022661 21.945344A511.964163 511.964163 0 1 0 149.977344 746.054656a511.964163 511.964163 0 0 0 724.045317-724.109312z m-45.244833 45.244833a447.968642 447.968642 0 1 1-633.491656 633.555651 447.968642 447.968642 0 0 1 633.491656-633.555651z"  horiz-adv-x="1024" />
      
      <glyph glyph-name="a-16Visibility" unicode="&#59230;" d="M625.152 270.848a160 160 0 1 0-226.304 226.304 160 160 0 0 0 226.304-226.304zM579.84 316.16a96 96 0 1 1-135.808 135.808 96 96 0 0 1 135.808-135.808zM512 704c372.352 0 512-320 512-320s-139.648-320-512-320-512 320-512 320 139.648 320 512 320zM161.216 269.632C233.536 198.592 346.176 128 512 128c165.76 0 278.4 70.592 350.784 141.632A551.936 551.936 0 0 1 951.808 384a551.936 551.936 0 0 1-89.024 114.368C790.464 569.408 677.824 640 512 640 346.24 640 233.6 569.408 161.216 498.368A551.936 551.936 0 0 1 72.192 384c24.512-41.856 54.4-80.32 89.024-114.368z"  horiz-adv-x="1024" />
      
      <glyph glyph-name="a-16Files" unicode="&#59258;" d="M576 896H128v-1024h768V576h-64v-640H192V832h384V896zM320 320h384V384H320v-64z m384-192H320v64h384v-64zM640 896l256-256h-256V896z"  horiz-adv-x="1024" />
      
      <glyph glyph-name="a-16FilterList" unicode="&#59259;" d="M1024 640H0V704h1024v-64z m-192-256H192V448h640v-64z m-256-256H448v64h128v-64z"  horiz-adv-x="1024" />
      
      <glyph glyph-name="a-16Filter" unicode="&#59261;" d="M81.92 696.64C38.656 752.32 78.912 832 148.48 832h727.296c69.568 0 109.824-79.68 66.56-135.36l-0.064-0.128a24139.136 24139.136 0 0 0-194.368-243.008c-35.264-43.584-70.592-87.168-105.984-130.688l-1.792-2.176v-321.536l-256-112V320.64l-1.792 2.176c-35.456 43.52-70.784 87.04-105.984 130.688-64 79.232-141.44 175.488-194.368 243.008v0.128H81.92z m359.04-344.448l7.168-8.832v-358.4l128 55.936V343.424l7.168 8.832 8.96 11.008c35.328 43.456 70.656 86.976 105.856 130.56 64 79.168 141.056 175.04 193.728 242.176a19.84 19.84 0 0 1-16.064 32H148.48a19.84 19.84 0 0 1-16-32c64-81.152 128.576-161.92 193.664-242.24 35.2-43.52 70.464-87.04 105.856-130.56l8.96-11.008z"  horiz-adv-x="1024" />
      
      <glyph glyph-name="a-16GoToLast" unicode="&#59262;" d="M169.28 22.656l45.312-45.248L621.184 384 214.592 790.656l-45.312-45.312L530.688 384l-361.408-361.344zM767.936 768v-768h64V768h-64z"  horiz-adv-x="1024" />
      
      <glyph glyph-name="a-16Close" unicode="&#59215;" d="M760.96 89.92l45.12 45.248-248.896 248.96 248.96 248.832-45.312 45.248L512 429.248 263.04 678.272l-45.248-45.248L466.752 384l-248.96-248.96 45.248-45.12L512 338.816l248.768-248.96h0.128z"  horiz-adv-x="1024" />
      
      <glyph glyph-name="a-16ChevronNext" unicode="&#59264;" d="M340.48 728.64L754.112 384l-413.44-344.576-41.024 49.152L654.08 384 299.52 679.488l40.96 49.152z"  horiz-adv-x="1024" />
      
      <glyph glyph-name="a-16CalendarMonth" unicode="&#59214;" d="M256 768h64v-128H256V768z m384-64H384v-64h256V704z m192-640H192V704H128v-704h768V704h-64v-640zM704 768h64v-128h-64V768z"  horiz-adv-x="1024" />
      
      <glyph glyph-name="a-16ChevronCollapse" unicode="&#59266;" d="M169.28 224l342.656 342.656 342.592-342.72-45.248-45.248L511.936 476.16l-297.344-297.344-45.312 45.248z"  horiz-adv-x="1024" />
      
      <glyph glyph-name="a-16BurgerMenu" unicode="&#59268;" d="M128 640h768v-64H128V640z m0-256h768v-64H128V384z m768-256H128v-64h768v64z"  horiz-adv-x="1024" />
      
      <glyph glyph-name="a-16ChevronBack" unicode="&#59269;" d="M683.52 39.488L270.016 384l413.44 344.576 40.96-49.152L370.048 384l354.56-295.424-41.024-49.152z"  horiz-adv-x="1024" />
      
      <glyph glyph-name="a-16Bookmark" unicode="&#59272;" d="M515.008 204.928L832-7.936V770.752A61.248 61.248 0 0 1 770.752 832h-512C221.888 832 192 802.112 192 765.248v-774.144l323.008 213.824zM128-128V765.248C128 837.44 186.56 896 258.752 896h512C839.872 896 896 839.936 896 770.752V-128l-381.248 256L128-128z"  horiz-adv-x="1024" />
      
      <glyph glyph-name="a-16ArrowRight1" unicode="&#59273;" d="M882.88 383.616l-201.536 201.536 45.312 45.248 278.592-278.656-278.592-278.592-45.248 45.248 201.216 201.216H0v64h882.88z"  horiz-adv-x="1024" />
      
      <glyph glyph-name="a-16ChevronExpand" unicode="&#59274;" d="M854.528 521.344L512 178.752 169.28 521.344l45.312 45.312 297.344-297.408 297.344 297.408 45.248-45.312z"  horiz-adv-x="1024" />
      
      <glyph glyph-name="a-16ArrowLeft1" unicode="&#59275;" d="M131.712 319.808l201.472-201.6-45.248-45.184L9.28 351.68l278.656 278.592 45.248-45.248-201.216-201.216h891.968v-64H131.648z"  horiz-adv-x="1024" />
      
      <glyph glyph-name="a-16Checkmark" unicode="&#59276;" d="M982.528 617.344L384 18.688 41.28 361.344l45.312 45.312 297.344-297.408 553.344 553.408 45.248-45.312z"  horiz-adv-x="1024" />
      
      <glyph glyph-name="a-16MoreHorizontal" unicode="&#59240;" d="M320 384a64 64 0 1 0-128 0 64 64 0 0 0 128 0z m256 0a64 64 0 1 0-128 0 64 64 0 0 0 128 0z m192-64a64 64 0 1 1 0 128 64 64 0 0 1 0-128z"  horiz-adv-x="1024" />
      
      <glyph glyph-name="a-16MoreVertical" unicode="&#59241;" d="M512 576a64 64 0 1 0 0 128 64 64 0 0 0 0-128z m0-256a64 64 0 1 0 0 128 64 64 0 0 0 0-128z m-64-192a64 64 0 1 1 128 0 64 64 0 0 1-128 0z"  horiz-adv-x="1024" />
      
      <glyph glyph-name="a-16Plus" unicode="&#59242;" d="M480 352V-64h64V352H960v64H544V832h-64v-416H64v-64h416z"  horiz-adv-x="1024" />
      
      <glyph glyph-name="a-16Minus" unicode="&#59243;" d="M64 416h896v-64H64v64z"  horiz-adv-x="1024" />
      
      <glyph glyph-name="a-16Logout" unicode="&#59244;" d="M512 0H288A96 96 0 0 0 192 96v576A96 96 0 0 0 288 768H512V832H288A160 160 0 0 1 128 672v-576A160 160 0 0 1 288-64H512v64zM704 234.624l41.472-42.624L896 352 745.472 512 704 469.376 784.896 384H384v-64h400.96L704 234.624z"  horiz-adv-x="1024" />
      
      <glyph glyph-name="a-16Inventory" unicode="&#59249;" d="M330.88 704H128v-704h320v64H192V640h640v-256h64V704h-202.88a192 192 0 0 1-362.24 0z m70.272 0h221.696a128 128 0 0 1-221.696 0zM983.04 169.984l-267.52-280.32-162.752 170.56 46.336 44.16 116.48-121.984 221.184 231.68 46.336-44.16z"  horiz-adv-x="1024" />
      
      <glyph glyph-name="a-16Heart" unicode="&#59250;" d="M506.112 555.968l-52.864 113.28c-14.08 30.208-66.56 103.04-200.96 103.04-59.2 0-104.64-26.496-137.344-66.688C81.28 664.064 64 610.816 64 568.064c0-85.312 54.784-195.2 255.104-381.376a4873.216 4873.216 0 0 1 192.448-170.624c60.16 51.072 146.56 125.76 199.488 176.832l20.096 19.2c42.752 40.768 96.768 92.16 142.72 151.04 54.208 69.504 88.704 139.072 86.016 202.496-2.688 62.08-24 114.048-57.6 149.568-32.64 34.432-80 57.088-145.28 57.088-99.648 0-168.128-71.36-188.608-107.264l-62.272-109.056zM511.872-64a1387.904 1387.904 0 0 1-11.904 9.856c-30.976 25.408-105.216 86.4-225.984 198.528C72.128 331.904 0 456.96 0 568.064 0 679.168 86.528 832 252.352 832c112 0 181.12-42.24 220.992-83.84 19.2-20.096 31.552-40 38.528-55.04 8.32 14.528 22.592 33.664 42.24 53.12 43.008 42.24 112 85.76 202.88 85.76 165.888 0 260.48-118.08 266.816-263.936 6.72-156.224-155.2-310.464-247.488-398.272l-19.264-18.496C687.808 84.608 564.736-20.032 511.872-64z"  horiz-adv-x="1024" />
      
      <glyph glyph-name="a-16Login" unicode="&#59251;" d="M448 768h288A96 96 0 0 0 832 672v-576a96 96 0 0 0-96-96H448v-64h288a160 160 0 0 1 160 160v576A160 160 0 0 1 736 832H448v-64zM448 234.624l41.472-42.624L640 352 489.472 512 448 469.376 528.896 384H128v-64h400.96L448 234.624z"  horiz-adv-x="1024" />
      
      <glyph glyph-name="a-16LinkChain" unicode="&#59253;" d="M96 384A224 224 0 0 0 320 608h128v-64H320a160 160 0 1 1 0-320h128v-64H320A224 224 0 0 0 96 384zM665.728 352h-307.2v64h307.2v-64zM704 160a224 224 0 1 1 0 448H576v-64h128a160 160 0 0 0 0-320H576v-64h128z"  horiz-adv-x="1024" />
      
      <glyph glyph-name="a-16Hide" unicode="&#59254;" d="M146.752 384l342.656-342.656 45.248 45.184L237.248 384l297.408 297.344-45.248 45.312L146.752 384zM466.816 384l342.592-342.656 45.312 45.184L557.312 384l297.408 297.344-45.248 45.312L466.752 384h0.064z"  horiz-adv-x="1024" />
      
      <glyph glyph-name="a-16GoToFirst" unicode="&#59216;" d="M854.656 745.344l-45.312 45.312L402.752 384l406.592-406.656 45.248 45.184L493.312 384l361.344 361.344zM128 768v-768h64V768H128z"  horiz-adv-x="1024" />
      
      <glyph glyph-name="a-16Download" unicode="&#59257;" d="M693.376 448L544 303.168V768h-64v-464.896L330.624 448l-42.624-41.472L512 192l224 214.528L693.376 448zM832 256v-96a96 96 0 0 0-96-96h-448A96 96 0 0 0 192 160V256H128v-96A160 160 0 0 1 288 0h448a160 160 0 0 1 160 160V256h-64z"  horiz-adv-x="1024" />
      
      <glyph glyph-name="a-16Volume" unicode="&#59222;" d="M320 576l320 192v-768l-320 192H64V576h256z m256 78.976l-192-115.2v-311.552l192-115.2V654.976zM320 256V512H128v-256h192z m402.752 327.872c58.496-26.24 98.432-86.72 98.432-155.968 0-72.064-43.2-134.592-105.6-159.04l-23.36 59.648c37.184 14.528 64.96 52.928 64.96 99.392 0 44.608-25.6 81.856-60.672 97.6l26.24 58.368z m83.392 110.656c99.392-48.192 153.728-149.504 153.728-262.592 0-123.904-67.2-232.832-181.12-274.176l-21.76 60.16c85.12 30.976 138.88 113.28 138.88 214.016 0 92.672-43.776 169.088-117.632 204.992l27.904 57.6z"  horiz-adv-x="1024" />
      
      <glyph glyph-name="a-16Upload" unicode="&#59225;" d="M725.376 576L768 617.472 544 832 320 617.472 362.624 576 512 720.832V256h64V720.896L725.376 576zM832 256v-96a96 96 0 0 0-96-96h-448A96 96 0 0 0 192 160V256H128v-96A160 160 0 0 1 288 0h448a160 160 0 0 1 160 160V256h-64z"  horiz-adv-x="1024" />
      
      <glyph glyph-name="a-16Settings" unicode="&#59219;" d="M853.738413 428.196377l97.155278 73.873829a22.194129 22.194129 0 0 1 5.564523 28.654091l-92.102436 154.911181a23.473329 23.473329 0 0 1-28.142411 9.849844l-114.552405-44.772018a338.284572 338.284572 0 0 1-77.77539 43.876577l-17.525047 118.645847A22.258089 22.258089 0 0 1 603.782636 832.039975H419.577764a22.258089 22.258089 0 0 1-22.449969-18.804247l-17.525047-118.645847a356.129419 356.129419 0 0 1-77.77539-43.876577l-114.616365 44.772018a22.641849 22.641849 0 0 1-28.014491-9.849844L67.158026 530.724297a21.682448 21.682448 0 0 1 5.500562-28.654091l97.155278-73.873829c-1.918801-14.327046-3.198001-29.101811-3.198001-43.876577 0.12792-14.710806 1.21524-29.357651 3.198001-43.876577l-97.219238-73.873829a22.194129 22.194129 0 0 1-5.500562-28.654091l92.102436-154.911181a23.473329 23.473329 0 0 1 28.078451-9.849843l114.616365 44.772017c23.857089-17.972767 50.01674-32.747533 77.77539-43.876577l17.525047-118.645846a22.258089 22.258089 0 0 1 22.513929-18.804248H603.782636a22.258089 22.258089 0 0 1 22.513929 18.804248l17.525046 118.645846a356.577139 356.577139 0 0 1 77.775391 43.876577l114.616365-44.772017a22.705809 22.705809 0 0 1 28.078451 9.849843l92.038476 154.911181a22.194129 22.194129 0 0 1-5.500563 28.654091l-97.219238 73.873829c1.918801 14.327046 3.198001 28.654091 3.198002 43.876577 0 15.222486-1.2792 29.549532-3.198002 43.876577z m-38.759775 327.603248c34.922174 12.344285 81.612992 2.046721 104.638601-37.992255l92.102436-155.10306 0.51168-0.70356a86.154154 86.154154 0 0 0-22.386008-110.650844l-0.25584-0.19188-68.948907-52.44722c0.38376-9.594004 0.38376-19.188007 0-28.782011l68.948907-52.447221 0.25584-0.19188a86.154154 86.154154 0 0 0 22.322048-110.714803l-0.38376-0.639601-92.102436-155.10306a86.857714 86.857714 0 0 0-106.173641-37.480575l-0.51168 0.19188-83.403873 32.619613a438.893691 438.893691 0 0 0-27.502811-15.670206l-12.344285-83.979513C683.540787-98.706309 644.205372-127.3604 603.782636-127.3604H419.577764c-40.294816 0-79.630231 28.654091-85.834354 73.873829l-12.344284 83.851593a391.371393 391.371393 0 0 0-27.694691 15.734166l-84.171393-32.875453-0.959401-0.38376c-34.986134-12.344285-81.676952-2.046721-104.70256 37.992255L11.768645 205.93529l-0.447721 0.703561a86.154154 86.154154 0 0 0 22.386009 110.650843l0.25584 0.19188 68.948907 52.447221c-0.44772 9.594004-0.44772 19.188007 0 28.782011L33.706933 451.349906a85.642473 85.642473 0 0 0-21.426608 112.249844l91.718676 154.20762A86.729794 86.729794 0 0 0 210.108682 755.287945l0.51168-0.19188 83.403873-32.619613c8.954403 5.564522 18.100687 10.809244 27.502811 15.670206l12.344284 83.979513C340.011493 867.281949 379.282948 896 419.705684 896H603.782636c40.422736 0 79.758151-28.782011 85.962273-73.809869l12.344285-83.915553c9.402124-4.860962 18.676327-10.105684 27.694691-15.734166l84.171393 32.875453 1.02336 0.38376zM398.662836 497.337164A160.091943 160.091943 0 0 0 511.6802 544.219863c88.136914 0 159.900062-71.763148 159.900062-159.900063S599.817114 224.419738 511.6802 224.419738A160.091943 160.091943 0 0 0 351.780137 384.3198c0 42.405497 16.885447 83.020112 46.882699 113.017364zM511.6802 608.179888C388.237352 608.179888 287.820112 507.762648 287.820112 384.3198s100.417239-223.860087 223.860088-223.860087 223.860087 100.417239 223.860087 223.860087S635.123048 608.179888 511.6802 608.179888z"  horiz-adv-x="1024" />
      
      <glyph glyph-name="a-16ShareIos" unicode="&#59227;" d="M342.592 631.296L479.936 771.2v-573.248h64V771.2l137.344-139.904 45.248 46.08L512 896 297.28 677.376l45.312-46.08zM256 589.12c-36.928 0-70.528-9.408-94.656-33.92C137.28 530.56 128 496.32 128 458.624v-456.32c0-37.568 9.28-71.808 33.344-96.384 24.128-24.576 57.728-33.92 94.656-33.92h512c36.928 0 70.528 9.344 94.656 33.92 24.064 24.576 33.344 58.752 33.344 96.384V480.128c0 10.496 0 22.4-1.216 33.536a92.928 92.928 0 0 1-11.264 37.568c-16.64 28.608-47.232 37.888-83.52 37.888H704v-65.216h96c13.696 0 21.12-1.792 24.896-3.328 2.688-1.088 3.2-1.92 3.52-2.496h0.064c1.6-3.648 2.56-7.488 2.688-11.456 0.832-7.232 0.832-15.808 0.832-27.456v-476.8c0-27.52-6.72-42.24-14.656-50.304-7.872-8-22.272-14.848-49.344-14.848H256c-27.072 0-41.472 6.848-49.344 14.848-7.936 8.064-14.656 22.72-14.656 50.368v456.32c0 27.584 6.72 42.24 14.656 50.304 7.872 8 22.272 14.848 49.344 14.848h64v65.28H256z"  horiz-adv-x="1024" />
      
      <glyph glyph-name="a-16Receipt" unicode="&#59228;" d="M256 512V576h384v-64H256z m384-192V384H256v-64h384z m128 224a32 32 0 1 0-64 0 32 32 0 0 0 64 0zM736 320a32 32 0 1 1 0 64 32 32 0 0 1 0-64zM320 896l64-64 64 64 64-64 64 64 64-64 64 64 64-64 64 64 64-64v-736.96c0-39.232 0-72-1.536-98.432-1.536-26.24-4.736-49.856-13.056-69.184a81.92 81.92 0 0 0-45.824-45.568 135.104 135.104 0 0 0-37.504-8.576l1.92-1.28H128a128 128 0 0 0-128 128v128h128V832l64 64 64-64 64 64z m384-800c0-40.32 0-71.296 1.472-95.616 1.408-24.832 4.224-39.168 7.936-47.808 2.88-6.592 5.824-9.28 11.2-11.456 7.488-3.008 20.224-5.12 43.392-5.12 23.168 0 35.968 2.112 43.392 5.12 5.376 2.176 8.32 4.864 11.2 11.52 3.712 8.576 6.528 22.912 7.936 47.744 1.472 24.32 1.472 55.232 1.472 95.616V768H192v-640h512v-32zM64 64v-64a64 64 0 0 1 64-64h512v128H64z"  horiz-adv-x="1024" />
      
      <glyph glyph-name="a-16ShoppingCartAdd" unicode="&#59231;" d="M0 768h197.76l128-640H896v64H378.24l-12.8 64h524.8l69.12 345.728-62.72 12.544L837.76 320H352.64l-102.4 512H0v-64z m576 0v-128H448v-64h128v-128h64V576h128V640h-128V768H576zM448-64a64 64 0 1 1 0 128 64 64 0 0 1 0-128z m384 64a64 64 0 1 0-128 0 64 64 0 0 0 128 0z"  horiz-adv-x="1024" />
      
      <glyph glyph-name="a-16Refresh" unicode="&#59233;" d="M461.248 672l73.408-73.344-45.312-45.312L338.752 704 489.344 854.656l45.312-45.312L461.248 736H512A416 416 0 1 0 96 320h64A352 352 0 1 1 512 672h-50.752z"  horiz-adv-x="1024" />
      
      <glyph glyph-name="a-16Show" unicode="&#59234;" d="M557.184 384L214.592 726.656l-45.312-45.248L466.688 384l-297.408-297.344 45.312-45.248L557.184 384zM877.184 384L534.592 726.656l-45.312-45.248L786.56 384l-297.344-297.344 45.312-45.248L877.184 384z"  horiz-adv-x="1024" />
      
      <glyph glyph-name="a-16Magnifying" unicode="&#59237;" d="M128 768h256v-64H192v-192H128V768z m512 0h256v-256h-64V704h-192V768z m-512-512h64v-192h192v-64H128v256z m768 0v-256h-256v64h192v192h64z"  horiz-adv-x="1024" />
      
      <glyph glyph-name="a-16OpenInNew" unicode="&#59238;" d="M288 768A160 160 0 0 1 128 608v-448A160 160 0 0 1 288 0h448a160 160 0 0 1 160 160V320h-64v-160a96 96 0 0 0-96-96h-448A96 96 0 0 0 192 160v448A96 96 0 0 0 288 704H448V768H288zM429.44 256L384 301.44 785.6 704H576V768h320v-320h-64V657.6L429.44 256z"  horiz-adv-x="1024" />
      
      <glyph glyph-name="a-16Map" unicode="&#59239;" d="M419.648 865.92l256.064-128L960 808.96v-814.912l-290.688-92.48-254.72 127.36L64-111.232V775.36L419.648 865.92zM128 725.76v-742.4l289.472 115.84 257.216-128.64L896 40.96V727.04l-227.712-56.96-256 128L128 725.76zM384 64V832h64v-768H384z m256-128V704h64v-768h-64z"  horiz-adv-x="1024" />
      
    </font>
</defs>
</svg>
